<?xml version="1.0" standalone="no"?>
<!DOCTYPE svg PUBLIC "-//W3C//DTD SVG 1.1//EN" "http://www.w3.org/Graphics/SVG/1.1/DTD/svg11.dtd" >
<svg xmlns="http://www.w3.org/2000/svg">
<metadata>Generated by IcoMoon</metadata>
<defs>
<font id="icomoon" horiz-adv-x="1024">
<font-face units-per-em="1024" ascent="870.850439882698" descent="-153.14956011730206" />
<missing-glyph horiz-adv-x="1024" />
<glyph unicode="&#x20;" horiz-adv-x="0" d="" />
<glyph unicode="&#xe600;" glyph-name="icomoon-search" horiz-adv-x="1010" d="M650.486 117.364l65.664 64.638 289.333-291.385-64.638-64.638-290.359 291.385zM475.039 801.708c-204.174 0-370.387-166.212-370.387-370.387s166.212-370.387 370.387-370.387 370.387 165.186 370.387 370.387-165.186 370.387-370.387 370.387zM475.039 109.156c-177.498 0-322.165 143.64-322.165 322.165s144.666 322.165 322.165 322.165 322.165-144.666 322.165-322.165-143.64-322.165-322.165-322.165z" />
<glyph unicode="&#xe60b;" glyph-name="icomoon-close" d="M876.207-24.224l-362.179 362.179-363.205-363.205-22.572 22.572 363.205 364.231-340.633 339.607 22.572 22.572 340.633-339.607 339.607 339.607 22.572-22.572-339.607-339.607 363.205-363.205-23.598-22.572z" />
<glyph unicode="&#xe797;" glyph-name="icomoon-overdraft-limit" d="M513.48-162.74c-283.583 0.006-513.47 229.897-513.47 513.48 0 141.791 57.471 270.159 150.39 363.080v0c92.923 92.923 221.295 150.397 363.090 150.397 283.591 0 513.487-229.896 513.487-513.487 0-141.795-57.474-270.167-150.397-363.090v0c-92.409-92.893-220.33-150.382-361.678-150.382-0.5 0-1 0.001-1.499 0.002h0.077zM513.48 824.22c-261.469-0.035-473.418-212.006-473.418-473.48 0-130.718 52.972-249.063 138.62-334.742l-0.002 0.002c85.761-86.152 204.447-139.464 335.584-139.464 261.496 0 473.48 211.984 473.48 473.48 0 131.138-53.313 249.824-139.447 335.567l-0.017 0.017c-85.206 85.63-203.143 138.622-333.458 138.622-0.472 0-0.944-0.001-1.415-0.002h0.073zM501.38 222.78l-29.26-58.78c39.658-27.859 88.94-44.522 142.115-44.522 137.563 0 249.080 111.517 249.080 249.080s-111.517 249.080-249.080 249.080c-76.178 0-144.368-34.197-190.057-88.077l-0.298-0.361-54.88 30.8 1.38-100.42 1.36-100.42 172.54 102.7-66.16 37c34.33 35.727 82.513 57.923 135.88 57.923 103.976 0 188.273-84.256 188.34-188.217v-0.007c0-103.78-92.14-197.62-188.22-188.22-78.76 7.66-112.74 42.44-112.74 42.44zM502.5 274.66v-147.88c-0.023-10.197-8.283-18.457-18.478-18.48h-317.362c-10.197 0.023-18.457 8.283-18.48 18.478v147.882zM637.5 348.62h-28.2v-66.96h-35.42v182.9h63.86c0.373 0.005 0.814 0.009 1.255 0.009 9.057 0 17.809-1.311 26.074-3.753l-0.65 0.165c7.706-2.233 14.389-5.861 20.086-10.63l-0.086 0.070c5.375-4.636 9.63-10.418 12.407-16.978l0.113-0.302c2.766-6.698 4.372-14.476 4.372-22.629 0-0.433-0.005-0.865-0.014-1.296l0.001 0.064c0.003-0.258 0.005-0.562 0.005-0.867 0-6.086-0.775-11.99-2.232-17.62l0.107 0.487c-1.406-5.389-3.512-10.118-6.258-14.397l0.118 0.197c-2.718-4.186-5.923-7.766-9.6-10.796l-0.080-0.064c-3.699-3.018-7.883-5.687-12.364-7.837l-0.376-0.163 37.18-74.74v-1.76h-38zM609.28 379.14h28.56c0.159-0.003 0.348-0.004 0.536-0.004 4.188 0 8.205 0.734 11.928 2.081l-0.244-0.077c6.59 2.313 11.687 7.41 13.952 13.842l0.048 0.158c1.13 3.186 1.783 6.86 1.783 10.687 0 0.152-0.001 0.305-0.003 0.456v-0.023q0 12.94-6.9 20.36t-21.2 7.38h-28.44zM502.5 328.54c-0.023 10.197-8.283 18.457-18.478 18.48h-317.362c-10.197-0.023-18.457-8.283-18.48-18.478v-24.422l354.32 1.54z" />
<glyph unicode="&#xe801;" glyph-name="icomoon-onceoff" d="M515.053-174.021c-137.484 0-265.735 53.352-362.179 149.796s-149.796 224.694-149.796 362.179c0 136.458 53.352 264.709 149.796 361.153s224.694 149.796 362.179 149.796c136.458 0 264.709-53.352 361.153-149.796s149.796-224.694 149.796-361.153c0-137.484-53.352-265.735-149.796-362.179s-224.694-149.796-361.153-149.796zM515.053 808.89c-260.604 0-471.961-211.356-471.961-470.935 0-260.604 211.356-471.961 471.961-471.961 259.578 0 470.935 211.356 470.935 471.961 0 259.578-211.356 470.935-470.935 470.935zM508.897 562.65h203.148c14.364 0 26.676 12.312 26.676 26.676v10.26c0 15.39-12.312 26.676-26.676 26.676h-203.148c-15.39 0-26.676-11.286-26.676-26.676v-10.26c0-14.364 11.286-26.676 26.676-26.676zM508.897 466.206h203.148c14.364 0 26.676 12.312 26.676 26.676v10.26c0 15.39-12.312 27.702-26.676 27.702h-203.148c-15.39 0-26.676-12.312-26.676-27.702v-10.26c0-14.364 11.286-26.676 26.676-26.676zM582.77 434.399c24.624-16.416 46.17-38.988 60.534-64.638h68.742c14.364 0 26.676 12.312 26.676 26.676v11.286c0 14.364-12.312 26.676-26.676 26.676h-129.276zM610.472 135.832c-29.754-28.728-67.716-47.196-109.782-53.352 2.052 0 5.13-1.026 8.208-1.026h203.148c1.026 0 2.052 0 3.078 0-42.066 2.052-80.028 22.572-104.652 54.378zM220.59 369.761h89.262c15.39 25.65 35.91 48.222 60.534 64.638h-149.796c-15.39 0-26.676-12.312-26.676-26.676v-11.286c0-14.364 11.286-26.676 26.676-26.676zM220.59 274.343h63.612c0 21.546 4.104 44.118 11.286 63.612h-74.898c-15.39 0-26.676-12.312-26.676-26.676v-10.26c0-15.39 11.286-26.676 26.676-26.676zM220.59 177.898h89.262c-11.286 19.494-19.494 41.040-22.572 63.612h-66.69c-15.39 0-26.676-11.286-26.676-26.676v-10.26c0-14.364 11.286-26.676 26.676-26.676zM333.451 146.092h-112.86c-15.39 0-26.676-12.312-26.676-27.702v-10.26c0-14.364 11.286-26.676 26.676-26.676h202.122c5.13 0 10.26 2.052 14.364 4.104-41.040 8.208-76.95 29.754-103.626 60.534zM513.001 298.967c2.052 3.078 3.078 8.208 3.078 13.338 0 7.182-1.026 12.312-4.104 15.39-4.104 4.104-8.208 7.182-14.364 8.208-3.078 0-12.312 0-27.702 0h-29.754v-47.196h27.702c18.468 0 29.754 0 33.858 2.052 5.13 1.026 8.208 4.104 11.286 8.208zM706.916 306.149c-25.65 0-48.222-10.26-65.664-25.65-1.026 19.494-5.13 37.962-12.312 55.404-23.598 60.534-83.106 102.6-151.848 102.6-91.314 0-165.186-73.872-165.186-164.16 0-91.314 73.872-165.186 165.186-165.186 46.17 0 87.21 18.468 117.99 49.248 7.182 8.208 13.338 15.39 19.494 24.624 11.286-40.014 48.222-69.768 92.34-69.768 52.326 0 95.418 43.092 95.418 96.444s-43.092 96.444-95.418 96.444zM525.314 179.95l-27.702 41.040c-9.234 14.364-16.416 23.598-19.494 27.702-4.104 3.078-7.182 6.156-11.286 7.182-4.104 2.052-10.26 2.052-19.494 2.052h-7.182v-77.976h-37.962v187.758h80.028c19.494 0 33.858-1.026 43.092-5.13 9.234-3.078 16.416-9.234 22.572-17.442 5.13-9.234 8.208-18.468 8.208-29.754 0-14.364-4.104-25.65-13.338-34.884-8.208-9.234-20.52-15.39-36.936-17.442 8.208-5.13 15.39-10.26 20.52-16.416 5.13-5.13 12.312-15.39 21.546-29.754l23.598-36.936h-46.17zM685.37 177.898l-6.156 11.286c-2.052 3.078-3.078 6.156-5.13 10.26v0c-2.052-4.104-3.078-7.182-5.13-10.26l-6.156-11.286h-20.52l20.52 32.832-19.494 30.78h20.52l6.156-10.26c2.052-3.078 4.104-6.156 5.13-9.234v0c2.052 3.078 3.078 6.156 5.13 9.234l5.13 10.26h21.546l-20.52-29.754 20.52-33.858h-21.546zM766.424 177.898h-21.546v59.508l-18.468-11.286-4.104 19.494 25.65 12.312h18.468v-80.028z" />
<glyph unicode="&#xe802;" glyph-name="icomoon-inter" d="M465.805 546.234h176.472v16.416h-176.472v-16.416zM465.805 482.622h176.472v15.39h-176.472v-15.39zM465.805 306.149h-160.056v-16.416h160.056v16.416zM433.999 241.511h-128.25v-15.39h128.25v15.39zM417.583 177.898h-111.834v-16.416h111.834v16.416zM305.749 417.983h336.529v16.416h-336.529v-16.416zM305.749 354.371h336.529v15.39h-336.529v-15.39zM706.916 321.539c0 122.094 0 240.084 0 256.5s-16.416 16.416-16.416 16.416v-256.5h-16.416v264.709c0 13.338-10.26 23.598-23.598 23.598h-216.486v-111.834c0 0 0-48.222-48.222-48.222-31.806 0-111.834 0-111.834 0v-344.737c0-13.338 10.26-23.598 23.598-23.598h136.458v-16.416h-128.25c0-16.416 16.416-16.416 16.416-16.416s58.482 0 128.25 0v-15.39c-58.482 0-110.808 0-128.25 0-32.832 0-32.832 31.806-32.832 31.806-13.338 0-31.806 18.468-31.806 31.806v369.361l176.472 160.056h224.694c13.338 0 31.806-18.468 31.806-31.806 31.806 0 31.806-32.832 31.806-32.832s0-120.042 0-256.5M618.68 321.539c-93.366 0-168.264-74.898-168.264-168.264s74.898-168.264 168.264-168.264 168.264 75.924 168.264 168.264-75.924 168.264-168.264 168.264zM658.694 65.038h-96.444v-31.806l-64.638 64.638 64.638 63.612v-31.806h96.444v-64.638zM674.084 129.676v31.806h-95.418v64.638h95.418v31.806l64.638-64.638-64.638-63.612zM876.207 699.108c-96.444 96.444-224.694 149.796-361.153 149.796-137.484 0-265.735-53.352-362.179-149.796s-149.796-224.694-149.796-361.153c0-137.484 53.352-265.735 149.796-362.179s224.694-149.796 362.179-149.796c136.458 0 264.709 53.352 361.153 149.796s149.796 224.694 149.796 362.179c0 136.458-53.352 264.709-149.796 361.153zM515.053-134.007c-260.604 0-471.961 211.356-471.961 471.961 0 259.578 211.356 470.935 471.961 470.935 259.578 0 470.935-211.356 470.935-470.935 0-260.604-211.356-471.961-470.935-471.961z" />
<glyph unicode="&#xe803;" glyph-name="icomoon-traffic" d="M564.302 532.896c0-31.806-25.65-58.482-57.456-58.482s-57.456 26.676-57.456 58.482c0 31.806 25.65 57.456 57.456 57.456s57.456-25.65 57.456-57.456zM610.472 289.733c0 0 0-25.65 0-31.806h96.444c0 0-1.026-51.3-23.598-75.924 0 0-32.832-32.832-36.936-41.040-5.13-8.208-6.156-17.442-4.104-43.092h-31.806c0 0-2.052-32.832-15.39-32.832-16.416 0-32.832 0-32.832 0l1.026-95.418c0 0-15.39-16.416-56.43-16.416-35.91 0-56.43 15.39-56.43 15.39v96.444l-30.78 1.026c0 0-17.442-1.026-17.442 31.806h-31.806c0 0 8.208 20.52-16.416 48.222-23.598 26.676-21.546 29.754-27.702 38.988-5.13 9.234-19.494 41.040-19.494 72.846h95.418v31.806h-31.806c-1.026 0 0 31.806-32.832 64.638-15.39 15.39-31.806 27.702-31.806 80.028h96.444v31.806h-31.806c0 0 7.182 28.728-33.858 66.69 0 0-33.858 35.91-30.78 93.366h80.028c0 0 0 16.416 31.806 16.416h32.832c0 0 0 31.806 31.806 31.806h48.222c0 0 31.806 0 31.806-31.806h31.806c0 0 32.832 0 32.832-16.416h80.028c0 0 5.13-49.248-23.598-83.106s-41.040-35.91-41.040-76.95h-31.806v-31.806h96.444c0 0 3.078-49.248-30.78-80.028-33.858-32.832-33.858-64.638-33.858-64.638h-31.806zM588.926 158.404c0 46.17-36.936 83.106-82.080 83.106s-82.080-36.936-82.080-83.106c0-45.144 36.936-83.106 82.080-83.106s82.080 37.962 82.080 83.106zM588.926 341.033c0 46.17-36.936 83.106-82.080 83.106s-82.080-36.936-82.080-83.106c0-46.17 36.936-83.106 82.080-83.106s82.080 36.936 82.080 83.106zM588.926 532.896c0 45.144-36.936 83.106-82.080 83.106s-82.080-37.962-82.080-83.106c0-46.17 36.936-83.106 82.080-83.106s82.080 36.936 82.080 83.106zM1026.003 337.955c0-137.484-53.352-265.735-149.796-362.179s-224.694-149.796-361.153-149.796c-137.484 0-265.735 53.352-362.179 149.796s-149.796 224.694-149.796 362.179c0 136.458 53.352 264.709 149.796 361.153s224.694 149.796 362.179 149.796c136.458 0 264.709-53.352 361.153-149.796s149.796-224.694 149.796-361.153zM985.989 337.955c0 259.578-211.356 470.935-470.935 470.935-260.604 0-471.961-211.356-471.961-470.935 0-260.604 211.356-471.961 471.961-471.961 259.578 0 470.935 211.356 470.935 471.961z" />
<glyph unicode="&#xe804;" glyph-name="icomoon-remove" d="M193.914 306.149h641.252v63.612h-641.252v-63.612zM515.053-174.021c-137.484 0-265.735 53.352-362.179 149.796s-149.796 224.694-149.796 362.179c0 136.458 53.352 264.709 149.796 361.153s224.694 149.796 362.179 149.796c136.458 0 264.709-53.352 361.153-149.796s149.796-224.694 149.796-361.153c0-137.484-53.352-265.735-149.796-362.179s-224.694-149.796-361.153-149.796zM515.053 808.89c-260.604 0-471.961-211.356-471.961-470.935 0-260.604 211.356-471.961 471.961-471.961 259.578 0 470.935 211.356 470.935 471.961 0 259.578-211.356 470.935-470.935 470.935z" />
<glyph unicode="&#xe805;" glyph-name="icomoon-prepaid" d="M442.207 570.858c0-5.13-4.104-8.208-8.208-8.208h-80.028c-5.13 0-8.208 3.078-8.208 8.208v0c0 4.104 3.078 7.182 8.208 7.182h80.028c4.104 0 8.208-3.078 8.208-7.182v0zM391.933 145.066c-13.338-1.026-23.598-12.312-22.572-25.65 2.052-13.338 13.338-22.572 26.676-21.546s22.572 12.312 21.546 25.65c-1.026 13.338-12.312 23.598-25.65 21.546zM818.751 402.593v-209.304c0-12.312-16.416-31.806-31.806-31.806h-417.583c-15.39 0-31.806 16.416-31.806 31.806v209.304c0 15.39 16.416 31.806 31.806 31.806h417.583c15.39 0 31.806-16.416 31.806-31.806zM802.335 386.177c0 16.416 0 31.806-31.806 31.806h-401.167c0 0-15.39 0-15.39-15.39v-192.888c0-16.416 0-31.806 31.806-31.806h384.751c31.806 0 31.806 15.39 31.806 31.806v176.472zM385.777 449.789c0 13.338 16.416 32.832 31.806 32.832h417.583c12.312 0 31.806-19.494 31.806-32.832v-208.278c0-15.39-16.416-31.806-31.806-31.806v0 16.416c12.312 0 15.39 10.26 15.39 23.598v192.888c0 13.338-10.26 23.598-23.598 23.598h-409.375c-15.39 0-15.39-16.416-15.39-16.416M594.056 226.121h-208.278v-16.416h208.278v16.416zM770.528 274.343v-64.638h-160.056v64.638h160.056zM754.112 257.927h-128.25v-31.806h128.25v31.806zM545.834 586.248c0 13.338-10.26 24.624-23.598 24.624h-256.5c-13.338 0-24.624-11.286-24.624-24.624v-496.585c0-13.338 11.286-24.624 24.624-24.624h256.5c13.338 0 23.598 11.286 23.598 24.624v56.43h-15.39c0-9.234 0-47.196 0-48.222 0-16.416-16.416-16.416-16.416-16.416s-224.694 0-240.084 0-16.416 16.416-16.416 16.416 0 464.779 0 480.169 16.416 16.416 16.416 16.416 223.668 0 240.084 0 16.416-16.416 16.416-16.416 0 8.208 0-80.028h15.39v88.236zM417.583 498.012h96.444v32.832h-240.084v-369.361h48.222v241.11c0 31.806 15.39 47.196 47.196 47.196v0 0c0 16.416 16.416 48.222 48.222 48.222zM876.207-24.224c96.444 96.444 149.796 224.694 149.796 362.179 0 136.458-53.352 264.709-149.796 361.153s-224.694 149.796-361.153 149.796c-137.484 0-265.735-53.352-362.179-149.796s-149.796-224.694-149.796-361.153c0-137.484 53.352-265.735 149.796-362.179s224.694-149.796 362.179-149.796c136.458 0 264.709 53.352 361.153 149.796zM985.989 337.955c0-260.604-211.356-471.961-470.935-471.961-260.604 0-471.961 211.356-471.961 471.961 0 259.578 211.356 470.935 471.961 470.935 259.578 0 470.935-211.356 470.935-470.935z" />
<glyph unicode="&#xe806;" glyph-name="icomoon-scheduled" d="M698.708 193.289c-18.468 0-32.832-14.364-32.832-31.806s14.364-31.806 32.832-31.806 31.806 14.364 31.806 31.806-14.364 31.806-31.806 31.806zM850.557 137.884v63.612h-47.196c-3.078 7.182-5.13 13.338-9.234 18.468l34.884 34.884-45.144 45.144-36.936-36.936c-5.13 2.052-11.286 4.104-16.416 6.156v52.326h-64.638v-52.326c-5.13-2.052-10.26-4.104-15.39-6.156l-36.936 36.936-45.144-45.144 33.858-34.884c-3.078-5.13-6.156-11.286-8.208-18.468h-48.222v-63.612h43.092c2.052-8.208 4.104-16.416 8.208-24.624l-28.728-28.728 45.144-45.144 26.676 26.676c8.208-5.13 16.416-9.234 25.65-12.312v-35.91h64.638v35.91c9.234 3.078 18.468 7.182 26.676 12.312l26.676-26.676 45.144 45.144-28.728 28.728c3.078 8.208 6.156 16.416 8.208 24.624h42.066zM698.708 97.87c-35.91 0-64.638 28.728-64.638 63.612s28.728 64.638 64.638 64.638 63.612-28.728 63.612-64.638-28.728-63.612-63.612-63.612zM545.834 113.26h-48.222v64.638h32.832v15.39h-32.832v64.638h32.832l15.39 16.416h-48.222v63.612h64.638v-48.222l16.416 16.416v31.806h175.446v192.888c0 13.338-10.26 23.598-23.598 23.598h-88.236v-56.43h-63.612v56.43h-176.472v-56.43h-64.638v56.43h-88.236c-13.338 0-23.598-10.26-23.598-23.598v-424.765c0-13.338 10.26-24.624 23.598-24.624h281.125l31.806 31.806h-16.416zM658.694 417.983h63.612v-63.612h-63.612v63.612zM578.666 417.983h63.612v-63.612h-63.612v63.612zM497.611 417.983h64.638v-63.612h-64.638v63.612zM322.165 113.26h-64.638v64.638h64.638v-64.638zM322.165 193.289h-64.638v64.638h64.638v-64.638zM322.165 274.343h-64.638v63.612h64.638v-63.612zM322.165 354.371h-64.638v63.612h64.638v-63.612zM402.193 113.26h-64.638v64.638h64.638v-64.638zM402.193 193.289h-64.638v64.638h64.638v-64.638zM402.193 274.343h-64.638v63.612h64.638v-63.612zM402.193 354.371h-64.638v63.612h64.638v-63.612zM482.221 113.26h-64.638v64.638h64.638v-64.638zM482.221 193.289h-64.638v64.638h64.638v-64.638zM482.221 354.371h-64.638v63.612h64.638v-63.612zM385.777 578.040h-31.806v-63.612h31.806v63.612zM625.862 578.040h-31.806v-63.612h31.806v63.612zM515.053-174.021c-137.484 0-265.735 53.352-362.179 149.796s-149.796 224.694-149.796 362.179c0 136.458 53.352 264.709 149.796 361.153s224.694 149.796 362.179 149.796c136.458 0 264.709-53.352 361.153-149.796s149.796-224.694 149.796-361.153c0-137.484-53.352-265.735-149.796-362.179s-224.694-149.796-361.153-149.796zM515.053 808.89c-260.604 0-471.961-211.356-471.961-470.935 0-260.604 211.356-471.961 471.961-471.961 259.578 0 470.935 211.356 470.935 471.961 0 259.578-211.356 470.935-470.935 470.935z" />
<glyph unicode="&#xe807;" glyph-name="icomoon-bills" d="M706.916 321.539c0 122.094 0 240.084 0 256.5s-16.416 16.416-16.416 16.416v-256.5h-16.416v264.709c0 13.338-10.26 23.598-23.598 23.598h-216.486v-111.834c0 0 0-48.222-48.222-48.222-31.806 0-111.834 0-111.834 0v-344.737c0-13.338 10.26-23.598 23.598-23.598h136.458v-16.416h-128.25c0-16.416 16.416-16.416 16.416-16.416s58.482 0 128.25 0v-15.39c-58.482 0-110.808 0-128.25 0-32.832 0-32.832 31.806-32.832 31.806-13.338 0-31.806 18.468-31.806 31.806v369.361l176.472 160.056h224.694c13.338 0 31.806-18.468 31.806-31.806 31.806 0 31.806-32.832 31.806-32.832s0-120.042 0-256.5M465.805 546.234h176.472v16.416h-176.472v-16.416zM465.805 482.622h176.472v15.39h-176.472v-15.39zM465.805 306.149h-160.056v-16.416h160.056v16.416zM433.999 241.511h-128.25v-15.39h128.25v15.39zM417.583 177.898h-111.834v-16.416h111.834v16.416zM305.749 417.983h336.529v16.416h-336.529v-16.416zM305.749 354.371h336.529v15.39h-336.529v-15.39zM876.207 699.108c-96.444 96.444-224.694 149.796-361.153 149.796-137.484 0-265.735-53.352-362.179-149.796s-149.796-224.694-149.796-361.153c0-137.484 53.352-265.735 149.796-362.179s224.694-149.796 362.179-149.796c136.458 0 264.709 53.352 361.153 149.796s149.796 224.694 149.796 362.179c0 136.458-53.352 264.709-149.796 361.153zM515.053-134.007c-260.604 0-471.961 211.356-471.961 471.961 0 259.578 211.356 470.935 471.961 470.935 259.578 0 470.935-211.356 470.935-470.935 0-260.604-211.356-471.961-470.935-471.961zM650.486 182.002c3.078 3.078 4.104 8.208 4.104 14.364s-2.052 11.286-5.13 15.39c-3.078 3.078-8.208 6.156-14.364 7.182-3.078 0-12.312 0-27.702 0h-29.754v-47.196h28.728c17.442 0 29.754 1.026 33.858 2.052 4.104 2.052 8.208 4.104 10.26 8.208zM614.576 321.539c-91.314 0-164.16-73.872-164.16-164.16s72.846-165.186 164.16-165.186 165.186 73.872 165.186 165.186-73.872 164.16-165.186 164.16zM663.824 62.986l-27.702 41.040c-9.234 14.364-16.416 23.598-19.494 27.702-4.104 4.104-8.208 6.156-12.312 7.182-4.104 2.052-10.26 3.078-18.468 3.078h-8.208v-79.002h-37.962v187.758h80.028c20.52 0 34.884-1.026 44.118-5.13s16.416-9.234 21.546-17.442c6.156-9.234 8.208-18.468 8.208-29.754 0-14.364-4.104-25.65-12.312-34.884s-20.52-15.39-36.936-17.442c8.208-5.13 14.364-10.26 20.52-16.416 5.13-5.13 12.312-15.39 21.546-29.754l22.572-36.936h-45.144z" />
<glyph unicode="&#xe808;" glyph-name="icomoon-calendar" d="M433.999 498.012h-31.806v64.638h31.806v-64.638zM674.084 562.65h-31.806v-64.638h31.806v64.638zM802.335 522.636v-416.557c0-13.338-10.26-24.624-23.598-24.624h-481.195c-13.338 0-23.598 11.286-23.598 24.624v416.557c0 13.338 10.26 23.598 23.598 23.598h88.236v-63.612h64.638v63.612h175.446v-63.612h64.638v63.612h88.236c13.338 0 23.598-10.26 23.598-23.598zM369.361 177.898h-63.612v-64.638h63.612v64.638zM369.361 257.927h-63.612v-64.638h63.612v64.638zM369.361 337.955h-63.612v-63.612h63.612v63.612zM369.361 417.983h-63.612v-63.612h63.612v63.612zM450.415 177.898h-64.638v-64.638h64.638v64.638zM450.415 257.927h-64.638v-64.638h64.638v64.638zM450.415 337.955h-64.638v-63.612h64.638v63.612zM450.415 417.983h-64.638v-63.612h64.638v63.612zM530.444 177.898h-64.638v-64.638h64.638v64.638zM530.444 257.927h-64.638v-64.638h64.638v64.638zM530.444 417.983h-64.638v-63.612h64.638v63.612zM610.472 177.898h-64.638v-64.638h64.638v64.638zM610.472 257.927h-64.638v-64.638h64.638v64.638zM610.472 337.955h-64.638v-63.612h64.638v63.612zM610.472 417.983h-64.638v-63.612h64.638v63.612zM690.5 177.898h-64.638v-64.638h64.638v64.638zM690.5 257.927h-64.638v-64.638h64.638v64.638zM690.5 337.955h-64.638v-63.612h64.638v63.612zM690.5 417.983h-64.638v-63.612h64.638v63.612zM770.528 177.898h-63.612v-64.638h63.612v64.638zM770.528 257.927h-63.612v-64.638h63.612v64.638zM770.528 337.955h-63.612v-63.612h63.612v63.612zM770.528 417.983h-63.612v-63.612h63.612v63.612z" />
<glyph unicode="&#xe809;" glyph-name="icomoon-dropdown" d="M514.027 49.648l352.945 481.195h-705.89z" />
<glyph unicode="&#xe80a;" glyph-name="icomoon-beneficiary-search" d="M876.207 699.108c-96.444 96.444-224.694 149.796-361.153 149.796-137.484 0-265.735-53.352-362.179-149.796s-149.796-224.694-149.796-361.153c0-137.484 53.352-265.735 149.796-362.179s224.694-149.796 362.179-149.796c136.458 0 264.709 53.352 361.153 149.796s149.796 224.694 149.796 362.179c0 136.458-53.352 264.709-149.796 361.153zM515.053-134.007c-260.604 0-471.961 211.356-471.961 471.961 0 259.578 211.356 470.935 471.961 470.935 259.578 0 470.935-211.356 470.935-470.935 0-260.604-211.356-471.961-470.935-471.961zM251.37 289.733h-153.9v21.546c1.026 74.898 17.442 85.158 126.198 132.354-23.598 24.624-40.014 67.716-40.014 105.678 0 59.508 38.988 87.21 86.184 87.21s87.21-27.702 87.21-87.21c0-37.962-16.416-81.054-40.014-105.678 38.988-17.442 65.664-29.754 85.158-41.040-95.418-42.066-135.432-65.664-150.822-112.86zM930.585 311.279v-21.546h-153.9c-15.39 47.196-55.404 70.794-150.822 112.86 19.494 11.286 46.17 23.598 85.158 41.040-23.598 24.624-40.014 67.716-40.014 105.678 0 59.508 38.988 87.21 87.21 87.21s86.184-27.702 86.184-87.21c0-37.962-16.416-81.054-40.014-105.678 108.756-47.196 125.172-57.456 126.198-132.354v0zM754.112 207.653v-29.754h-80.028c0 88.236-71.82 160.056-160.056 160.056s-160.056-71.82-160.056-160.056h-80.028v29.754c1.026 103.626 23.598 117.99 175.446 182.628-33.858 35.91-55.404 94.392-55.404 147.744 0 83.106 53.352 121.068 120.042 121.068s120.042-37.962 120.042-121.068c0-53.352-21.546-111.834-55.404-147.744 151.848-64.638 174.42-79.002 175.446-182.628v0zM706.916-14.99l-16.416-15.39-107.73 109.782 11.286 18.468 112.86-112.86zM514.027 306.149c-70.794 0-128.25-57.456-128.25-128.25s57.456-128.25 128.25-128.25c70.794 0 128.25 57.456 128.25 128.25s-57.456 128.25-128.25 128.25zM514.027 65.038c-61.56 0-111.834 50.274-111.834 112.86s50.274 111.834 111.834 111.834 111.834-50.274 111.834-111.834-50.274-112.86-111.834-112.86z" />
<glyph unicode="&#xe80b;" glyph-name="icomoon-delete" d="M385.777 114.286h288.307v-31.806h-288.307v31.806zM322.165 531.87h416.557v-32.832h-416.557v32.832zM450.415 435.425h31.806v-256.5h-31.806v256.5zM450.415 595.482h31.806v-63.612h-31.806v63.612zM578.666 595.482h31.806v-63.612h-31.806v63.612zM450.415 595.482h160.056v-33.858h-160.056v33.858zM514.027 435.425h31.806v-256.5h-31.806v256.5zM578.666 435.425h31.806v-256.5h-31.806v256.5zM674.084 516.48h32.832v-433.999h-32.832v433.999zM353.971 516.48h31.806v-433.999h-31.806v433.999zM515.053-174.021c-137.484 0-265.735 53.352-362.179 149.796s-149.796 224.694-149.796 362.179c0 136.458 53.352 264.709 149.796 361.153s224.694 149.796 362.179 149.796c136.458 0 264.709-53.352 361.153-149.796s149.796-224.694 149.796-361.153c0-137.484-53.352-265.735-149.796-362.179s-224.694-149.796-361.153-149.796zM515.053 808.89c-260.604 0-471.961-211.356-471.961-470.935s211.356-471.961 471.961-471.961c259.578 0 470.935 211.356 470.935 471.961s-211.356 470.935-470.935 470.935z" />
<glyph unicode="&#xe80c;" glyph-name="icomoon-edit" d="M327.295 243.563l-20.52 13.338 293.437 444.259 1.026 2.052 135.432-85.158-2.052-3.078v-1.026l-8.208-12.312-282.151-433.999-20.52 13.338 285.229 431.947-32.832 20.52-283.177-432.973-33.858 21.546 285.229 431.947-35.91 22.572-281.125-432.973zM297.541 89.662l37.962 17.442 95.418 38.988-135.432 85.158 1.026-99.522 1.026-42.066zM265.735 17.842h470.935v28.728h-470.935v-28.728zM1023.951 337.955c0-282.151-227.772-509.923-509.923-509.923s-509.923 227.772-509.923 509.923c0 282.151 227.772 509.923 509.923 509.923s509.923-227.772 509.923-509.923zM984.963 337.955c0 259.578-211.356 470.935-470.935 470.935s-470.935-211.356-470.935-470.935c0-259.578 211.356-470.935 470.935-470.935s470.935 211.356 470.935 470.935z" />
<glyph unicode="&#xe80d;" glyph-name="icomoon-pay" d="M743.852 626.262h-203.148c-14.364 0-26.676-11.286-26.676-26.676v-10.26c0-14.364 12.312-26.676 26.676-26.676h203.148c14.364 0 26.676 12.312 26.676 26.676v10.26c0 15.39-12.312 26.676-26.676 26.676zM743.852 530.844h-203.148c-14.364 0-26.676-12.312-26.676-27.702v-10.26c0-14.364 12.312-26.676 26.676-26.676h203.148c14.364 0 26.676 12.312 26.676 26.676v10.26c0 15.39-12.312 27.702-26.676 27.702zM743.852 434.399h-128.25c24.624-16.416 45.144-38.988 59.508-64.638h68.742c14.364 0 26.676 12.312 26.676 26.676v11.286c0 14.364-12.312 26.676-26.676 26.676zM743.852 274.343c14.364 0 26.676 11.286 26.676 26.676v10.26c0 14.364-12.312 26.676-26.676 26.676h-53.352c7.182-19.494 10.26-42.066 10.26-63.612h43.092zM743.852 177.898c14.364 0 26.676 12.312 26.676 26.676v10.26c0 15.39-12.312 26.676-26.676 26.676h-45.144c-4.104-22.572-12.312-44.118-23.598-63.612h68.742zM532.496 82.48c2.052 0 5.13-1.026 8.208-1.026h203.148c14.364 0 26.676 12.312 26.676 26.676v10.26c0 15.39-12.312 27.702-26.676 27.702h-91.314c-30.78-33.858-72.846-57.456-120.042-63.612zM402.193 434.399h-149.796c-15.39 0-26.676-12.312-26.676-26.676v-11.286c0-14.364 11.286-26.676 26.676-26.676h89.262c15.39 25.65 35.91 48.222 60.534 64.638zM252.396 337.955c-15.39 0-26.676-12.312-26.676-26.676v-10.26c0-15.39 11.286-26.676 26.676-26.676h63.612c0 21.546 4.104 44.118 11.286 63.612h-74.898zM252.396 241.511c-15.39 0-26.676-11.286-26.676-26.676v-10.26c0-14.364 11.286-26.676 26.676-26.676h89.262c-11.286 19.494-18.468 41.040-22.572 63.612h-66.69zM365.257 146.092h-112.86c-15.39 0-26.676-12.312-26.676-27.702v-10.26c0-14.364 11.286-26.676 26.676-26.676h203.148c5.13 0 9.234 2.052 13.338 4.104-40.014 8.208-76.95 29.754-103.626 60.534zM544.808 298.967c2.052 3.078 4.104 8.208 4.104 13.338 0 7.182-2.052 12.312-5.13 15.39-4.104 4.104-8.208 7.182-14.364 8.208-3.078 0-12.312 0-27.702 0h-29.754v-47.196h27.702c18.468 0 29.754 0 34.884 2.052 4.104 1.026 7.182 4.104 10.26 8.208zM508.897 438.503c-91.314 0-165.186-73.872-165.186-164.16 0-91.314 73.872-165.186 165.186-165.186s165.186 73.872 165.186 165.186c0 90.288-73.872 164.16-165.186 164.16zM557.12 179.95l-26.676 41.040c-10.26 14.364-16.416 23.598-20.52 27.702-3.078 3.078-7.182 6.156-11.286 7.182-4.104 2.052-10.26 2.052-19.494 2.052h-7.182v-77.976h-37.962v187.758h80.028c19.494 0 34.884-1.026 44.118-5.13 8.208-3.078 16.416-9.234 21.546-17.442 5.13-9.234 8.208-18.468 8.208-29.754 0-14.364-4.104-25.65-12.312-34.884s-20.52-15.39-37.962-17.442c8.208-5.13 15.39-10.26 20.52-16.416 5.13-5.13 13.338-15.39 21.546-29.754l23.598-36.936h-46.17zM876.207 699.108c-96.444 96.444-224.694 149.796-361.153 149.796-137.484 0-265.735-53.352-362.179-149.796s-149.796-224.694-149.796-361.153c0-137.484 53.352-265.735 149.796-362.179s224.694-149.796 362.179-149.796c136.458 0 264.709 53.352 361.153 149.796s149.796 224.694 149.796 362.179c0 136.458-53.352 264.709-149.796 361.153zM515.053-134.007c-260.604 0-471.961 211.356-471.961 471.961 0 259.578 211.356 470.935 471.961 470.935 259.578 0 470.935-211.356 470.935-470.935 0-260.604-211.356-471.961-470.935-471.961z" />
<glyph unicode="&#xe80e;" glyph-name="icomoon-alert" d="M545.834 241.511h-63.612v384.751h63.612v-384.751zM545.834 146.092h-63.612v-64.638h63.612v64.638zM876.207-24.224c96.444 96.444 149.796 224.694 149.796 362.179 0 136.458-53.352 264.709-149.796 361.153s-224.694 149.796-361.153 149.796c-137.484 0-265.735-53.352-362.179-149.796s-149.796-224.694-149.796-361.153c0-137.484 53.352-265.735 149.796-362.179s224.694-149.796 362.179-149.796c136.458 0 264.709 53.352 361.153 149.796zM985.989 337.955c0-260.604-211.356-471.961-470.935-471.961-260.604 0-471.961 211.356-471.961 471.961 0 259.578 211.356 470.935 471.961 470.935 259.578 0 470.935-211.356 470.935-470.935z" />
<glyph unicode="&#xe80f;" glyph-name="icomoon-add-group" d="M876.207 699.108c-96.444 96.444-224.694 149.796-361.153 149.796-137.484 0-265.735-53.352-362.179-149.796s-149.796-224.694-149.796-361.153c0-137.484 53.352-265.735 149.796-362.179s224.694-149.796 362.179-149.796c136.458 0 264.709 53.352 361.153 149.796s149.796 224.694 149.796 362.179c0 136.458-53.352 264.709-149.796 361.153zM515.053-134.007c-260.604 0-471.961 211.356-471.961 471.961 0 259.578 211.356 470.935 471.961 470.935 259.578 0 470.935-211.356 470.935-470.935 0-260.604-211.356-471.961-470.935-471.961zM251.37 235.355h-153.9v21.546c1.026 73.872 17.442 84.132 126.198 131.328-23.598 25.65-40.014 67.716-40.014 106.704 0 59.508 38.988 86.184 86.184 86.184s87.21-26.676 87.21-86.184c0-38.988-16.416-81.054-40.014-106.704 38.988-16.416 65.664-28.728 85.158-41.040-95.418-42.066-135.432-65.664-150.822-111.834zM930.585 256.901v-21.546h-153.9c-15.39 46.17-55.404 69.768-150.822 111.834 19.494 12.312 46.17 24.624 85.158 41.040-23.598 25.65-40.014 67.716-40.014 106.704 0 59.508 38.988 86.184 87.21 86.184s86.184-26.676 86.184-86.184c0-38.988-16.416-81.054-40.014-106.704 108.756-47.196 125.172-57.456 126.198-131.328v0zM754.112 153.274v-30.78h-48.222c-4.104 106.704-92.34 192.888-200.070 192.888s-195.966-86.184-200.070-192.888h-31.806v30.78c1.026 102.6 23.598 117.99 175.446 182.628-33.858 34.884-55.404 94.392-55.404 147.744 0 83.106 53.352 120.042 120.042 120.042s120.042-36.936 120.042-120.042c0-53.352-21.546-112.86-55.404-147.744 151.848-64.638 174.42-80.028 175.446-182.628v0zM509.923 282.551c-91.314 0-165.186-72.846-165.186-164.16s73.872-165.186 165.186-165.186c90.288 0 164.16 73.872 164.16 165.186s-73.872 164.16-164.16 164.16zM509.923-14.99c-73.872 0-133.38 59.508-133.38 133.38s59.508 132.354 133.38 132.354c72.846 0 132.354-59.508 132.354-132.354s-59.508-133.38-132.354-133.38zM497.611 193.289h32.832v-63.612h63.612v-31.806h-63.612v-64.638h-32.832v64.638h-63.612v31.806h63.612v63.612z" />
<glyph unicode="&#xe810;" glyph-name="icomoon-beneficiaries" d="M754.112 95.818v-30.78h-480.169v30.78c1.026 102.6 23.598 117.99 175.446 182.628-33.858 35.91-55.404 94.392-55.404 147.744 0 83.106 53.352 120.042 120.042 120.042s120.042-36.936 120.042-120.042c0-53.352-21.546-111.834-55.404-147.744 151.848-64.638 174.42-80.028 175.446-182.628v0zM876.207 699.108c-96.444 96.444-224.694 149.796-361.153 149.796-137.484 0-265.735-53.352-362.179-149.796s-149.796-224.694-149.796-361.153c0-137.484 53.352-265.735 149.796-362.179s224.694-149.796 362.179-149.796c136.458 0 264.709 53.352 361.153 149.796s149.796 224.694 149.796 362.179c0 136.458-53.352 264.709-149.796 361.153zM515.053-134.007c-260.604 0-471.961 211.356-471.961 471.961 0 259.578 211.356 470.935 471.961 470.935 259.578 0 470.935-211.356 470.935-470.935 0-260.604-211.356-471.961-470.935-471.961zM402.193 289.733c-19.494 12.312-46.17 24.624-85.158 41.040 23.598 25.65 40.014 68.742 40.014 106.704 0 59.508-38.988 86.184-87.21 86.184s-86.184-26.676-86.184-86.184c0-37.962 16.416-81.054 40.014-106.704-108.756-46.17-125.172-57.456-126.198-131.328v0-21.546h153.9c15.39 46.17 55.404 70.794 150.822 111.834zM930.585 199.445c-1.026 73.872-17.442 85.158-126.198 131.328 23.598 25.65 40.014 68.742 40.014 106.704 0 59.508-38.988 86.184-86.184 86.184s-87.21-26.676-87.21-86.184c0-37.962 16.416-81.054 40.014-106.704-38.988-16.416-65.664-28.728-85.158-41.040 95.418-41.040 135.432-65.664 150.822-111.834h153.9v21.546z" />
<glyph unicode="&#xe811;" glyph-name="icomoon-beneficiary" d="M876.207 699.108c-96.444 96.444-224.694 149.796-361.153 149.796-137.484 0-265.735-53.352-362.179-149.796s-149.796-224.694-149.796-361.153c0-137.484 53.352-265.735 149.796-362.179s224.694-149.796 362.179-149.796c136.458 0 264.709 53.352 361.153 149.796s149.796 224.694 149.796 362.179c0 136.458-53.352 264.709-149.796 361.153zM515.053-134.007c-260.604 0-471.961 211.356-471.961 471.961 0 259.578 211.356 470.935 471.961 470.935 259.578 0 470.935-211.356 470.935-470.935 0-260.604-211.356-471.961-470.935-471.961zM786.945 115.312v-33.858h-545.834v33.858h1.026c1.026 116.964 26.676 134.406 199.044 207.252-37.962 41.040-63.612 107.73-63.612 168.264 0 93.366 61.56 135.432 136.458 135.432s136.458-42.066 136.458-135.432c0-60.534-25.65-127.224-63.612-168.264 172.368-72.846 198.018-90.288 200.070-207.252v0z" />
<glyph unicode="&#xe812;" glyph-name="icomoon-pay-group" d="M876.207 699.108c-96.444 96.444-224.694 149.796-361.153 149.796-137.484 0-265.735-53.352-362.179-149.796s-149.796-224.694-149.796-361.153c0-137.484 53.352-265.735 149.796-362.179s224.694-149.796 362.179-149.796c136.458 0 264.709 53.352 361.153 149.796s149.796 224.694 149.796 362.179c0 136.458-53.352 264.709-149.796 361.153zM515.053-134.007c-260.604 0-471.961 211.356-471.961 471.961 0 259.578 211.356 470.935 471.961 470.935 259.578 0 470.935-211.356 470.935-470.935 0-260.604-211.356-471.961-470.935-471.961zM402.193 347.189c-19.494 12.312-46.17 24.624-85.158 41.040 23.598 25.65 40.014 67.716 40.014 106.704 0 59.508-38.988 86.184-87.21 86.184s-86.184-26.676-86.184-86.184c0-38.988 16.416-81.054 40.014-106.704-108.756-47.196-125.172-57.456-126.198-131.328v0-21.546h153.9c15.39 46.17 55.404 69.768 150.822 111.834zM930.585 256.901c-1.026 73.872-17.442 84.132-126.198 131.328 23.598 25.65 40.014 67.716 40.014 106.704 0 59.508-38.988 86.184-86.184 86.184s-87.21-26.676-87.21-86.184c0-38.988 16.416-81.054 40.014-106.704-38.988-16.416-65.664-28.728-85.158-41.040 95.418-42.066 135.432-65.664 150.822-111.834h153.9v21.546zM534.548 134.806c-4.104-1.026-15.39-2.052-33.858-2.052h-27.702v47.196h28.728c15.39 0 25.65 0 28.728 0 6.156-1.026 10.26-4.104 13.338-7.182 4.104-4.104 5.13-9.234 5.13-15.39s-1.026-10.26-3.078-14.364c-3.078-4.104-6.156-6.156-11.286-8.208zM509.923 282.551c-91.314 0-165.186-72.846-165.186-164.16s73.872-165.186 165.186-165.186c90.288 0 164.16 73.872 164.16 165.186s-73.872 164.16-164.16 164.16zM558.146 23.998l-27.702 41.040c-9.234 14.364-16.416 23.598-19.494 27.702-4.104 4.104-7.182 6.156-11.286 7.182-4.104 2.052-10.26 3.078-19.494 3.078h-7.182v-79.002h-37.962v187.758h79.002c20.52 0 34.884-1.026 44.118-4.104s16.416-10.26 22.572-18.468c5.13-9.234 8.208-18.468 8.208-29.754 0-14.364-4.104-25.65-13.338-34.884-8.208-9.234-20.52-15.39-36.936-17.442 8.208-5.13 15.39-10.26 20.52-15.39 5.13-6.156 12.312-16.416 21.546-30.78l22.572-36.936h-45.144zM754.112 153.274v-30.78h-48.222c-4.104 106.704-92.34 192.888-200.070 192.888s-195.966-86.184-200.070-192.888h-31.806v30.78c1.026 102.6 23.598 117.99 175.446 182.628-33.858 34.884-55.404 94.392-55.404 147.744 0 83.106 53.352 120.042 120.042 120.042s120.042-36.936 120.042-120.042c0-53.352-21.546-112.86-55.404-147.744 151.848-64.638 174.42-80.028 175.446-182.628v0z" />
<glyph unicode="&#xe813;" glyph-name="icomoon-add-beneficiary" d="M876.207 699.108c-96.444 96.444-224.694 149.796-361.153 149.796-137.484 0-265.735-53.352-362.179-149.796s-149.796-224.694-149.796-361.153c0-137.484 53.352-265.735 149.796-362.179s224.694-149.796 362.179-149.796c136.458 0 264.709 53.352 361.153 149.796s149.796 224.694 149.796 362.179c0 136.458-53.352 264.709-149.796 361.153zM515.053-134.007c-260.604 0-471.961 211.356-471.961 471.961 0 259.578 211.356 470.935 471.961 470.935 259.578 0 470.935-211.356 470.935-470.935 0-260.604-211.356-471.961-470.935-471.961zM754.112 153.274c-1.026 102.6-23.598 117.99-175.446 182.628 33.858 34.884 55.404 94.392 55.404 147.744 0 83.106-53.352 120.042-120.042 120.042s-120.042-36.936-120.042-120.042c0-53.352 21.546-112.86 55.404-147.744-151.848-64.638-174.42-80.028-175.446-182.628v0-30.78h31.806c4.104 106.704 92.34 192.888 200.070 192.888s195.966-86.184 200.070-192.888h48.222v30.78zM509.923 282.551c-91.314 0-165.186-72.846-165.186-164.16s73.872-165.186 165.186-165.186c90.288 0 164.16 73.872 164.16 165.186s-73.872 164.16-164.16 164.16zM509.923-14.99c-73.872 0-133.38 59.508-133.38 133.38s59.508 132.354 133.38 132.354c72.846 0 132.354-59.508 132.354-132.354s-59.508-133.38-132.354-133.38zM497.611 193.289h32.832v-63.612h63.612v-31.806h-63.612v-64.638h-32.832v64.638h-63.612v31.806h63.612v63.612z" />
<glyph unicode="&#xe814;" glyph-name="icomoon-products" d="M876.207 699.108c-96.444 96.444-224.694 149.796-361.153 149.796-137.484 0-265.735-53.352-362.179-149.796s-149.796-224.694-149.796-361.153c0-137.484 53.352-265.735 149.796-362.179s224.694-149.796 362.179-149.796c136.458 0 264.709 53.352 361.153 149.796s149.796 224.694 149.796 362.179c0 136.458-53.352 264.709-149.796 361.153zM515.053-134.007c-260.604 0-471.961 211.356-471.961 471.961 0 259.578 211.356 470.935 471.961 470.935 259.578 0 470.935-211.356 470.935-470.935 0-260.604-211.356-471.961-470.935-471.961zM866.973 364.631l-63.612 134.406-1.026-1.026v4.104l-256.5 108.756-256.5-112.86-80.028-95.418 80.028 15.39v-240.084l241.11-96.444h18.468l253.422 111.834v143.64l64.638 27.702zM545.834 402.593v191.862l224.694-96.444-224.694-95.418zM530.444 97.87l-224.694 95.418v272.917l224.694-80.028v-288.307zM786.945 209.705l-241.11-111.834v288.307l58.482-134.406 179.55 77.976 3.078-120.042z" />
<glyph unicode="&#xe815;" glyph-name="icomoon-prepaid-history" d="M876.207 699.108c-96.444 96.444-224.694 149.796-361.153 149.796-137.484 0-265.735-53.352-362.179-149.796s-149.796-224.694-149.796-361.153c0-137.484 53.352-265.735 149.796-362.179s224.694-149.796 362.179-149.796c136.458 0 264.709 53.352 361.153 149.796s149.796 224.694 149.796 362.179c0 136.458-53.352 264.709-149.796 361.153zM515.053-134.007c-260.604 0-471.961 211.356-471.961 471.961 0 259.578 211.356 470.935 471.961 470.935 259.578 0 470.935-211.356 470.935-470.935 0-260.604-211.356-471.961-470.935-471.961zM442.207 570.858c0-5.13-4.104-8.208-8.208-8.208h-80.028c-5.13 0-8.208 3.078-8.208 8.208v0c0 4.104 3.078 7.182 8.208 7.182h80.028c4.104 0 8.208-3.078 8.208-7.182v0zM391.933 145.066c-13.338-1.026-23.598-12.312-22.572-25.65 2.052-13.338 13.338-22.572 26.676-21.546s22.572 12.312 21.546 25.65c-1.026 13.338-12.312 23.598-25.65 21.546zM545.834 586.248c0 13.338-10.26 24.624-23.598 24.624h-256.5c-13.338 0-24.624-11.286-24.624-24.624v-496.585c0-13.338 11.286-24.624 24.624-24.624h256.5c13.338 0 23.598 11.286 23.598 24.624v56.43h-15.39c0-9.234 0-47.196 0-48.222 0-16.416-16.416-16.416-16.416-16.416s-224.694 0-240.084 0-16.416 16.416-16.416 16.416 0 464.779 0 480.169 16.416 16.416 16.416 16.416 223.668 0 240.084 0 16.416-16.416 16.416-16.416 0 8.208 0-80.028h15.39v88.236zM545.834 434.399h-15.39v48.222h15.39v-48.222zM706.916 434.399h-16.416v48.222h16.416v-48.222zM785.918 466.206h-63.612v-42.066h-48.222v42.066h-111.834v-48.222h-48.222v48.222h-63.612c-9.234 0-16.416-7.182-16.416-15.39v-273.943c0-9.234 7.182-16.416 16.416-16.416h335.503c9.234 0 16.416 7.182 16.416 16.416v273.943c0 8.208-7.182 15.39-16.416 15.39zM500.689 182.002h-44.118v42.066h44.118v-42.066zM500.689 234.329h-44.118v42.066h44.118v-42.066zM500.689 286.655h-44.118v43.092h44.118v-43.092zM500.689 340.007h-44.118v42.066h44.118v-42.066zM557.12 182.002h-45.144v42.066h45.144v-42.066zM557.12 234.329h-45.144v42.066h45.144v-42.066zM557.12 286.655h-45.144v43.092h45.144v-43.092zM557.12 340.007h-45.144v42.066h45.144v-42.066zM612.524 182.002h-44.118v42.066h44.118v-42.066zM612.524 234.329h-44.118v42.066h44.118v-42.066zM612.524 340.007h-44.118v42.066h44.118v-42.066zM668.954 182.002h-45.144v42.066h45.144v-42.066zM668.954 234.329h-45.144v42.066h45.144v-42.066zM668.954 286.655h-45.144v43.092h45.144v-43.092zM668.954 340.007h-45.144v42.066h45.144v-42.066zM724.358 182.002h-45.144v42.066h45.144v-42.066zM724.358 234.329h-45.144v42.066h45.144v-42.066zM724.358 286.655h-45.144v43.092h45.144v-43.092zM724.358 340.007h-45.144v42.066h45.144v-42.066zM779.762 182.002h-44.118v42.066h44.118v-42.066zM779.762 234.329h-44.118v42.066h44.118v-42.066zM779.762 286.655h-44.118v43.092h44.118v-43.092zM779.762 340.007h-44.118v42.066h44.118v-42.066zM417.583 457.998v-296.515h-143.64v369.361h240.084v-48.222h-71.82c-13.338 0-24.624-11.286-24.624-24.624z" />
<glyph unicode="&#xe816;" glyph-name="icomoon-view-statements" d="M706.916 386.177c0 122.094 0 175.446 0 191.862s-16.416 16.416-16.416 16.416v-191.862h-16.416v200.070c0 13.338-10.26 23.598-23.598 23.598h-216.486v-111.834c0 0 0-48.222-48.222-48.222-31.806 0-111.834 0-111.834 0v-344.737c0-13.338 10.26-23.598 23.598-23.598h168.264v-16.416h-160.056c0-16.416 16.416-16.416 16.416-16.416s122.094 0 191.862 0v-15.39c-58.482 0-174.42 0-191.862 0-32.832 0-32.832 31.806-32.832 31.806-13.338 0-31.806 18.468-31.806 31.806v369.361l176.472 160.056h224.694c13.338 0 31.806-18.468 31.806-31.806 31.806 0 31.806-32.832 31.806-32.832s0-56.43 0-191.862M465.805 546.234h176.472v16.416h-176.472v-16.416zM465.805 482.622h176.472v15.39h-176.472v-15.39zM417.583 306.149h-111.834v-16.416h111.834v16.416zM402.193 241.511h-96.444v-15.39h96.444v15.39zM417.583 177.898h-111.834v-16.416h111.834v16.416zM305.749 417.983h336.529v16.416h-336.529v-16.416zM305.749 354.371h144.666v15.39h-144.666v-15.39zM1026.003 337.955c0-137.484-53.352-265.735-149.796-362.179s-224.694-149.796-361.153-149.796c-137.484 0-265.735 53.352-362.179 149.796s-149.796 224.694-149.796 362.179c0 136.458 53.352 264.709 149.796 361.153s224.694 149.796 362.179 149.796c136.458 0 264.709-53.352 361.153-149.796s149.796-224.694 149.796-361.153zM985.989 337.955c0 259.578-211.356 470.935-470.935 470.935-260.604 0-471.961-211.356-471.961-470.935 0-260.604 211.356-471.961 471.961-471.961 259.578 0 470.935 211.356 470.935 471.961zM744.878 23.998l25.65 25.65-84.132 89.262-25.65-24.624 84.132-90.288zM736.67 235.355c0-79.002-63.612-142.614-143.64-142.614-79.002 0-142.614 63.612-142.614 142.614 0 80.028 63.612 143.64 142.614 143.64 80.028 0 143.64-63.612 143.64-143.64zM718.202 235.355c0 68.742-56.43 125.172-125.172 125.172s-124.146-56.43-124.146-125.172c0-68.742 55.404-124.146 124.146-124.146s125.172 55.404 125.172 124.146zM690.5 226.121c0 0-31.806-48.222-96.444-48.222s-96.444 48.222-96.444 48.222 32.832 48.222 96.444 48.222 96.444-48.222 96.444-48.222zM625.862 226.121c0 17.442-14.364 31.806-31.806 31.806s-31.806-14.364-31.806-31.806 14.364-32.832 31.806-32.832 31.806 14.364 31.806 32.832zM602.264 226.121c-4.104 0-8.208 3.078-8.208 8.208 0 3.078 2.052 5.13 5.13 7.182-2.052 0-3.078 0-5.13 0-8.208 0-15.39-7.182-15.39-15.39s7.182-16.416 15.39-16.416 16.416 7.182 16.416 16.416c0 1.026 0 3.078-1.026 4.104-1.026-2.052-4.104-4.104-7.182-4.104z" />
<glyph unicode="&#xe817;" glyph-name="icomoon-info" d="M482.221 81.454h63.612v384.751h-63.612v-384.751zM482.221 562.65h63.612v63.612h-63.612v-63.612zM876.207 699.108c-96.444 96.444-224.694 149.796-361.153 149.796-137.484 0-265.735-53.352-362.179-149.796s-149.796-224.694-149.796-361.153c0-137.484 53.352-265.735 149.796-362.179s224.694-149.796 362.179-149.796c136.458 0 264.709 53.352 361.153 149.796s149.796 224.694 149.796 362.179c0 136.458-53.352 264.709-149.796 361.153zM515.053-134.007c-260.604 0-471.961 211.356-471.961 471.961 0 259.578 211.356 470.935 471.961 470.935 259.578 0 470.935-211.356 470.935-470.935 0-260.604-211.356-471.961-470.935-471.961z" />
<glyph unicode="&#xe819;" glyph-name="icomoon-account-number" d="M876.207 699.108c-96.444 96.444-224.694 149.796-361.153 149.796-137.484 0-265.735-53.352-362.179-149.796s-149.796-224.694-149.796-361.153c0-137.484 53.352-265.735 149.796-362.179s224.694-149.796 362.179-149.796c136.458 0 264.709 53.352 361.153 149.796s149.796 224.694 149.796 362.179c0 136.458-53.352 264.709-149.796 361.153zM515.053-134.007c-260.604 0-471.961 211.356-471.961 471.961 0 259.578 211.356 470.935 471.961 470.935 259.578 0 470.935-211.356 470.935-470.935 0-260.604-211.356-471.961-470.935-471.961zM802.335 183.028v-35.91h-58.482c-5.13 128.25-109.782 229.824-239.058 229.824s-234.954-101.574-240.084-229.824h-38.988v35.91h1.026c1.026 123.12 28.728 141.588 210.33 218.538-40.014 43.092-66.69 113.886-66.69 177.498 0 99.522 64.638 143.64 143.64 143.64s143.64-44.118 143.64-143.64c0-63.612-26.676-134.406-66.69-177.498 181.602-76.95 209.304-95.418 210.33-218.538h1.026zM508.897 338.981c-109.782 0-198.018-88.236-198.018-196.992s88.236-198.018 198.018-198.018c108.756 0 196.992 88.236 196.992 198.018s-88.236 196.992-196.992 196.992zM508.897-17.042c-88.236 0-159.030 70.794-159.030 159.030s70.794 159.030 159.030 159.030c87.21 0 159.030-71.82 159.030-159.030s-71.82-159.030-159.030-159.030zM610.472 174.82v37.962h-42.066l3.078 37.962h-37.962l-4.104-37.962h-37.962l3.078 37.962h-37.962l-3.078-37.962h-54.378v-37.962h50.274l-5.13-57.456h-45.144v-38.988h42.066l-4.104-37.962h38.988l3.078 37.962h37.962l-3.078-37.962h37.962l4.104 37.962h54.378v38.988h-51.3l5.13 57.456h46.17zM521.209 117.364h-38.988l6.156 57.456h37.962l-5.13-57.456z" />
<glyph unicode="&#xe81a;" glyph-name="icomoon-success" d="M462.727 176.872v0l-45.144-45.144-46.17 45.144-135.432 136.458 45.144 45.144 136.458-136.458 339.607 340.633 45.144-45.144-339.607-340.633zM876.207 699.108c-96.444 96.444-224.694 149.796-361.153 149.796-137.484 0-265.735-53.352-362.179-149.796s-149.796-224.694-149.796-361.153c0-137.484 53.352-265.735 149.796-362.179s224.694-149.796 362.179-149.796c136.458 0 264.709 53.352 361.153 149.796s149.796 224.694 149.796 362.179c0 136.458-53.352 264.709-149.796 361.153zM515.053-134.007c-260.604 0-471.961 211.356-471.961 471.961 0 259.578 211.356 470.935 471.961 470.935 259.578 0 470.935-211.356 470.935-470.935 0-260.604-211.356-471.961-470.935-471.961z" />
<glyph unicode="&#xe81b;" glyph-name="icomoon-print" d="M322.165 241.511v-223.668h384.751v223.668h-384.751zM674.084 49.648h-320.113v160.056h320.113v-160.056zM642.278 146.092h-256.5v31.806h256.5v-31.806zM642.278 81.454h-256.5v31.806h256.5v-31.806zM322.165 498.012v104.652c0 13.338 10.26 23.598 23.598 23.598h336.529c13.338 0 24.624-10.26 24.624-23.598v-104.652M810.543 466.206h-593.030c-13.338 0-23.598-10.26-23.598-23.598v-241.11c0-13.338 10.26-23.598 23.598-23.598h71.82v96.444h449.389v-96.444h71.82c13.338 0 24.624 10.26 24.624 23.598v241.11c0 13.338-11.286 23.598-24.624 23.598zM770.528 369.761c-17.442 0-31.806 14.364-31.806 32.832s14.364 31.806 31.806 31.806 31.806-14.364 31.806-31.806-14.364-32.832-31.806-32.832z" />
<glyph unicode="&#xe81c;" glyph-name="icomoon-download" d="M594.056 626.262h-160.056v-288.307h-80.028l160.056-176.472 160.056 176.472h-80.028v288.307zM706.916 97.87h-384.751v-48.222h384.751v48.222zM876.207 699.108c-96.444 96.444-224.694 149.796-361.153 149.796-137.484 0-265.735-53.352-362.179-149.796s-149.796-224.694-149.796-361.153c0-137.484 53.352-265.735 149.796-362.179s224.694-149.796 362.179-149.796c136.458 0 264.709 53.352 361.153 149.796s149.796 224.694 149.796 362.179c0 136.458-53.352 264.709-149.796 361.153zM515.053-134.007c-260.604 0-471.961 211.356-471.961 471.961 0 259.578 211.356 470.935 471.961 470.935 259.578 0 470.935-211.356 470.935-470.935 0-260.604-211.356-471.961-470.935-471.961z" />
<glyph unicode="&#xe81d;" glyph-name="icomoon-instant-money" d="M835.167 241.511l-176.472 144.666v-80.028h-121.068c5.13-17.442 8.208-36.936 8.208-56.43 0-25.65-5.13-50.274-14.364-71.82h127.224v-80.028l176.472 143.64zM393.985 271.265c3.078 4.104 4.104 8.208 4.104 14.364s-2.052 11.286-5.13 15.39c-3.078 3.078-8.208 6.156-14.364 7.182-3.078 0-12.312 0-27.702 0h-29.754v-47.196h28.728c17.442 0 29.754 1.026 33.858 2.052 4.104 2.052 8.208 4.104 10.26 8.208zM358.075 410.801c-91.314 0-164.16-72.846-164.16-164.16s72.846-165.186 164.16-165.186c91.314 0 165.186 73.872 165.186 165.186s-73.872 164.16-165.186 164.16zM407.323 152.248l-27.702 41.040c-9.234 14.364-16.416 23.598-19.494 27.702-4.104 4.104-8.208 6.156-12.312 7.182-4.104 2.052-10.26 3.078-18.468 3.078h-8.208v-79.002h-37.962v187.758h80.028c20.52 0 34.884-1.026 44.118-4.104 9.234-4.104 16.416-10.26 21.546-18.468 6.156-9.234 8.208-18.468 8.208-29.754 0-14.364-4.104-25.65-12.312-34.884s-20.52-15.39-36.936-17.442c8.208-5.13 14.364-10.26 20.52-15.39 5.13-6.156 12.312-16.416 21.546-30.78l22.572-36.936h-45.144zM562.25 562.65c11.286 0 5.13-1.026 16.416-3.078v18.468h-32.832v-18.468c10.26 2.052 5.13 3.078 16.416 3.078zM735.644 369.761h-26.676c0 81.054-65.664 147.744-146.718 147.744-58.482 0-111.834-34.884-135.432-88.236l-23.598 10.26c27.702 62.586 90.288 103.626 159.030 103.626 95.418 0 173.394-77.976 173.394-173.394zM625.862 594.456c0-13.338-15.39-16.416-15.39-16.416h-96.444c0 0-16.416 3.078-16.416 16.416v0c0 13.338 16.416 16.416 16.416 16.416h96.444c0 0 15.39-3.078 15.39-16.416v0zM731.54 466.206c4.104 2.052 8.208 4.104 12.312 8.208 10.26 9.234 13.338 21.546 8.208 26.676l-44.118 46.17c-5.13 5.13-17.442 2.052-26.676-7.182-4.104-4.104-7.182-8.208-9.234-12.312 24.624-14.364 45.144-35.91 59.508-61.56zM578.666 354.371c0-9.234-7.182-16.416-16.416-16.416v0c-9.234 0-16.416 7.182-16.416 16.416v111.834c0 9.234 7.182 16.416 16.416 16.416v0c9.234 0 16.416-7.182 16.416-16.416v-111.834zM642.278 354.371c0-9.234-7.182-16.416-16.416-16.416h-63.612c-9.234 0-16.416 7.182-16.416 16.416v0c0 8.208 7.182 15.39 16.416 15.39h63.612c9.234 0 16.416-7.182 16.416-15.39v0zM515.053-174.021c-137.484 0-265.735 53.352-362.179 149.796s-149.796 224.694-149.796 362.179c0 136.458 53.352 264.709 149.796 361.153s224.694 149.796 362.179 149.796c136.458 0 264.709-53.352 361.153-149.796s149.796-224.694 149.796-361.153c0-137.484-53.352-265.735-149.796-362.179s-224.694-149.796-361.153-149.796zM515.053 808.89c-260.604 0-471.961-211.356-471.961-470.935 0-260.604 211.356-471.961 471.961-471.961 259.578 0 470.935 211.356 470.935 471.961 0 259.578-211.356 470.935-470.935 470.935z" />
<glyph unicode="&#xe81e;" glyph-name="icomoon-chevron-down" d="M517.105 190.211v0l-22.572-22.572-339.607 339.607 22.572 23.598 317.035-318.061 317.035 318.061 23.598-23.598-318.061-317.035z" />
<glyph unicode="&#xe81f;" glyph-name="icomoon-close-circle" d="M536.6 337.955l125.172-124.146-22.572-23.598-125.172 125.172-125.172-125.172-22.572 23.598 125.172 124.146-125.172 125.172 22.572 22.572 125.172-125.172 125.172 125.172 22.572-22.572-125.172-125.172zM876.207 699.108c-96.444 96.444-224.694 149.796-361.153 149.796-137.484 0-265.735-53.352-362.179-149.796s-149.796-224.694-149.796-361.153c0-137.484 53.352-265.735 149.796-362.179s224.694-149.796 362.179-149.796c136.458 0 264.709 53.352 361.153 149.796s149.796 224.694 149.796 362.179c0 136.458-53.352 264.709-149.796 361.153zM515.053-134.007c-260.604 0-471.961 211.356-471.961 471.961 0 259.578 211.356 470.935 471.961 470.935 259.578 0 470.935-211.356 470.935-470.935 0-260.604-211.356-471.961-470.935-471.961z" />
<glyph unicode="&#xe820;" glyph-name="icomoon-print-circle" d="M514.027 847.878c-282.151 0-509.923-227.772-509.923-509.923s227.772-509.923 509.923-509.923c282.151 0 509.923 227.772 509.923 509.923s-227.772 509.923-509.923 509.923zM514.027-132.981c-259.578 0-470.935 211.356-470.935 470.935s211.356 470.935 470.935 470.935c259.578 0 470.935-211.356 470.935-470.935s-211.356-470.935-470.935-470.935zM322.165 241.511v-223.668h384.751v223.668h-384.751zM674.084 49.648h-320.113v160.056h320.113v-160.056zM642.278 146.092h-256.5v31.806h256.5v-31.806zM642.278 81.454h-256.5v31.806h256.5v-31.806zM322.165 498.012v104.652c0 13.338 10.26 23.598 23.598 23.598h336.529c13.338 0 24.624-10.26 24.624-23.598v-104.652M810.543 466.206h-593.030c-13.338 0-23.598-10.26-23.598-23.598v-241.11c0-13.338 10.26-23.598 23.598-23.598h71.82v96.444h449.389v-96.444h71.82c13.338 0 24.624 10.26 24.624 23.598v241.11c0 13.338-11.286 23.598-24.624 23.598zM770.528 369.761c-17.442 0-31.806 14.364-31.806 32.832s14.364 31.806 31.806 31.806 31.806-14.364 31.806-31.806-14.364-32.832-31.806-32.832z" />
<glyph unicode="&#xe821;" glyph-name="icomoon-chevron-left" d="M653.564 688.848l22.572-22.572-318.061-317.035 318.061-318.061-22.572-22.572-340.633 340.633 22.572 22.572 318.061 317.035z" />
<glyph unicode="&#xe822;" glyph-name="icomoon-chevron-right" d="M653.564 371.813v0l22.572-22.572-340.633-340.633-22.572 22.572 318.061 318.061-318.061 317.035 22.572 22.572 318.061-317.035z" />
<glyph unicode="&#xe823;" glyph-name="icomoon-chevron-up" d="M471.961 507.246v0l22.572 23.598 340.633-340.633-23.598-22.572-317.035 317.035-317.035-317.035-22.572 22.572 317.035 317.035z" />
<glyph unicode="&#xe824;" glyph-name="icomoon-switch-dashboard" d="M482.221-111.435h-416.557v417.583h416.557v-417.583zM193.914 434.399c0 159.030 95.418 160.056 160.056 160.056v-63.612l128.25 95.418-128.25 96.444v-63.612c-128.25 0-224.694-64.638-224.694-224.694h64.638zM963.417 787.344v-417.583h-417.583v417.583h417.583zM898.779 722.706h-288.307v-288.307h288.307v288.307zM835.167 241.511c0-159.030-96.444-160.056-161.082-160.056v64.638l-128.25-96.444 128.25-96.444v64.638c128.25 0 224.694 63.612 224.694 223.668h-63.612z" />
<glyph unicode="&#xe825;" glyph-name="icomoon-add" d="M898.779 306.149h-352.945v-352.945h-63.612v352.945h-352.945v63.612h352.945v352.945h63.612v-352.945h352.945v-63.612z" />
<glyph unicode="&#xe826;" glyph-name="icomoon-back-to-top" d="M0 851.982v-1026.003h1026.003v1026.003h-1026.003zM844.401 167.638l-318.061 317.035-317.035-317.035-22.572 22.572 317.035 317.035 22.572 23.598 340.633-340.633-22.572-22.572z" />
<glyph unicode="&#xe827;" glyph-name="icomoon-filter" d="M514.027 787.344l288.307-384.751h-576.614l288.307 384.751zM514.027-111.435l288.307 385.777h-576.614l288.307-385.777z" />
<glyph unicode="&#xe828;" glyph-name="icomoon-arrow-down" d="M161.082 261.005l22.572 22.572 301.645-300.619v770.528h31.806v-770.528l301.645 300.619 22.572-22.572-339.607-339.607-340.633 339.607z" />
<glyph unicode="&#xe829;" glyph-name="icomoon-arrow-left" d="M97.47 357.449l339.607 339.607 22.572-22.572-300.619-300.619h770.528v-32.832h-770.528l300.619-300.619-22.572-22.572-339.607 339.607z" />
<glyph unicode="&#xe82a;" glyph-name="icomoon-home" d="M835.167 306.149c0-1.026 0 1.026 0 0v0zM193.914 305.123c0-1.026 0-1.026 0-2.052 0 0 0-1.026 0-1.026l1.026-257.526c0-10.26 8.208-20.52 14.364-26.676 7.182-7.182 25.65-16.416 34.884-16.416h206.226v208.278h128.25v-208.278h210.33c9.234 0 22.572 9.234 29.754 16.416 7.182 6.156 16.416 22.572 16.416 31.806v256.5l-321.139 256.5-320.113-257.526zM947.001 351.293c-1.026 5.13-2.052 9.234-6.156 11.286l-138.51 120.042 1.026 207.252c0 5.13-1.026 9.234-4.104 12.312s-7.182 4.104-12.312 4.104h-80.028c-5.13 0-9.234-1.026-13.338-4.104-3.078-3.078-3.078-7.182-3.078-12.312v-127.224l-135.432 122.094c-11.286 9.234-25.65 21.546-41.040 21.546s-29.754-12.312-41.040-21.546l-385.777-322.165c-4.104-2.052-5.13-6.156-6.156-11.286 0-5.13 1.026-9.234 4.104-12.312l32.832-40.014c3.078-3.078 7.182-5.13 11.286-6.156 4.104 0 9.234 1.026 13.338 4.104l371.413 313.957 371.413-313.957c3.078-2.052 7.182-4.104 11.286-4.104h2.052c4.104 1.026 8.208 3.078 11.286 6.156l32.832 40.014c3.078 3.078 4.104 7.182 4.104 12.312z" />
<glyph unicode="&#xe82b;" glyph-name="icomoon-arrow-right" d="M621.758 17.842l-22.572 22.572 300.619 300.619h-770.528v32.832h770.528l-300.619 300.619 22.572 22.572 339.607-339.607-339.607-339.607z" />
<glyph unicode="&#xe82c;" glyph-name="icomoon-account" d="M706.916-102.201v-41.040h-657.668v41.040c2.052 141.588 32.832 162.108 240.084 250.344-45.144 48.222-75.924 129.276-75.924 202.122 0 112.86 73.872 164.16 164.16 164.16 91.314 0 164.16-51.3 164.16-164.16 0-72.846-29.754-153.9-75.924-202.122 207.252-88.236 239.058-108.756 240.084-250.344h1.026zM738.722-14.99h200.070c13.338 0 24.624 11.286 24.624 24.624v737.696c0 12.312-11.286 23.598-24.624 23.598h-624.836c-13.338 0-24.624-11.286-24.624-23.598v-216.486l32.832 15.39v168.264c0 13.338 2.052 16.416 15.39 16.416h577.64c13.338 0 15.39-3.078 15.39-16.416v-681.266c0-13.338-2.052-15.39-15.39-15.39h-176.472v-32.832zM770.528 659.094h-336.529v-64.638h336.529v64.638zM770.528 530.844h-208.278v-64.638h208.278v64.638zM882.363 530.844h-80.028v-64.638h80.028v64.638zM770.528 402.593h-176.472v-64.638h176.472v64.638zM882.363 402.593h-80.028v-64.638h80.028v64.638zM770.528 274.343h-191.862v-64.638h191.862v64.638zM882.363 274.343h-80.028v-64.638h80.028v64.638zM770.528 146.092h-111.834v-64.638h111.834v64.638zM882.363 146.092h-80.028v-64.638h80.028v64.638zM882.363 659.094h-80.028v-64.638h80.028v64.638z" />
<glyph unicode="&#xe82d;" glyph-name="icomoon-resend" d="M514.027 847.878c-282.151 0-509.923-227.772-509.923-509.923s227.772-509.923 509.923-509.923c282.151 0 509.923 227.772 509.923 509.923s-227.772 509.923-509.923 509.923zM514.027-132.981c-259.578 0-470.935 211.356-470.935 470.935s211.356 470.935 470.935 470.935c259.578 0 470.935-211.356 470.935-470.935s-211.356-470.935-470.935-470.935zM835.167 337.955c0 176.472-144.666 321.139-321.139 321.139-88.236 0-168.264-36.936-226.746-94.392l91.314-90.288c33.858 34.884 82.080 56.43 135.432 56.43 105.678 0 192.888-87.21 192.888-192.888h-96.444l160.056-160.056 160.056 160.056h-95.418zM193.914 337.955c0-176.472 143.64-320.113 320.113-320.113 88.236 0 168.264 35.91 226.746 93.366l-90.288 91.314c-34.884-34.884-83.106-56.43-136.458-56.43-105.678 0-191.862 86.184-191.862 191.862h95.418l-160.056 160.056-160.056-160.056h96.444z" />
<glyph unicode="&#xe82e;" glyph-name="icomoon-payment-notifications" d="M465.805 562.65h176.472v-16.416h-176.472v16.416zM465.805 482.622h176.472v15.39h-176.472v-15.39zM465.805 306.149h-160.056v-16.416h160.056v16.416zM433.999 241.511h-128.25v-15.39h128.25v15.39zM417.583 177.898h-111.834v-16.416h111.834v16.416zM305.749 417.983h336.529v16.416h-336.529v-16.416zM305.749 354.371h336.529v15.39h-336.529v-15.39zM722.306 321.539c0 136.458 0 256.5 0 256.5s0 32.832-31.806 32.832c0 13.338-18.468 31.806-31.806 31.806h-224.694l-176.472-160.056v-369.361c0-13.338 18.468-31.806 31.806-31.806 0 0 0-31.806 32.832-31.806 17.442 0 69.768 0 128.25 0v15.39c-69.768 0-128.25 0-128.25 0s-16.416 0-16.416 16.416h128.25v16.416h-136.458c-13.338 0-23.598 10.26-23.598 23.598v344.737c0 0 80.028 0 111.834 0 48.222 0 48.222 48.222 48.222 48.222v111.834h216.486c13.338 0 23.598-10.26 23.598-23.598v-264.709h16.416v256.5c0 0 16.416 0 16.416-16.416s0-134.406 0-256.5M876.207 699.108c-96.444 96.444-224.694 149.796-361.153 149.796-137.484 0-265.735-53.352-362.179-149.796s-149.796-224.694-149.796-361.153c0-137.484 53.352-265.735 149.796-362.179s224.694-149.796 362.179-149.796c136.458 0 264.709 53.352 361.153 149.796s149.796 224.694 149.796 362.179c0 136.458-53.352 264.709-149.796 361.153zM515.053-134.007c-260.604 0-471.961 211.356-471.961 471.961 0 259.578 211.356 470.935 471.961 470.935 259.578 0 470.935-211.356 470.935-470.935 0-260.604-211.356-471.961-470.935-471.961zM618.68 321.539c-93.366 0-168.264-74.898-168.264-168.264s74.898-168.264 168.264-168.264 168.264 75.924 168.264 168.264-75.924 168.264-168.264 168.264zM647.408 33.232h-28.728v195.966h-1.026l-38.988-20.52-6.156 22.572 49.248 26.676h25.65v-224.694z" />
<glyph unicode="&#xe830;" glyph-name="icomoon-profile" d="M930.585-59.108v-52.326h-833.115v52.326c2.052 179.55 42.066 205.2 304.723 317.035-58.482 61.56-96.444 164.16-96.444 256.5 0 143.64 93.366 208.278 208.278 208.278s208.278-64.638 208.278-208.278c0-92.34-37.962-194.94-96.444-256.5 262.657-111.834 302.671-137.484 304.723-317.035v0z" />
<glyph unicode="&#xe832;" glyph-name="icomoon-view-scheduled-prepaid2" d="M876.207 699.108c-96.444 96.444-224.694 149.796-361.153 149.796-137.484 0-265.735-53.352-362.179-149.796s-149.796-224.694-149.796-361.153c0-137.484 53.352-265.735 149.796-362.179s224.694-149.796 362.179-149.796c136.458 0 264.709 53.352 361.153 149.796s149.796 224.694 149.796 362.179c0 136.458-53.352 264.709-149.796 361.153zM515.053-134.007c-260.604 0-471.961 211.356-471.961 471.961 0 259.578 211.356 470.935 471.961 470.935 259.578 0 470.935-211.356 470.935-470.935 0-260.604-211.356-471.961-470.935-471.961zM667.928 101.974l32.832 31.806 86.184-84.132-31.806-31.806-87.21 84.132zM582.77 397.463c-89.262 0-162.108-72.846-162.108-162.108s72.846-161.082 162.108-161.082c88.236 0 161.082 71.82 161.082 161.082s-72.846 162.108-161.082 162.108zM582.77 95.818c-77.976 0-140.562 62.586-140.562 139.536 0 77.976 62.586 140.562 140.562 140.562 76.95 0 139.536-62.586 139.536-140.562 0-76.95-62.586-139.536-139.536-139.536zM343.711 518.532h-30.78v59.508h30.78v-59.508zM568.406 518.532h-29.754v59.508h29.754v-59.508zM425.791 144.040h-52.326v59.508h30.78c-1.026 5.13-1.026 10.26-2.052 15.39h-28.728v59.508h33.858c9.234 34.884 27.702 66.69 53.352 90.288h-12.312v59.508h59.508v-27.702c5.13 3.078 10.26 5.13 15.39 6.156v21.546h60.534v-10.26c0 0 1.026 0 2.052 0 4.104 0 8.208 0 12.312 0v10.26h60.534v-24.624c10.26-4.104 20.52-10.26 29.754-16.416v146.718c0 12.312-10.26 22.572-22.572 22.572h-82.080v-53.352h-60.534v53.352h-165.186v-53.352h-59.508v53.352h-83.106c-12.312 0-21.546-10.26-21.546-22.572v-398.089c0-12.312 9.234-22.572 21.546-22.572h230.85c-8.208 9.234-15.39 19.494-20.52 30.78zM373.465 428.243h59.508v-59.508h-59.508v59.508zM283.177 144.040h-59.508v59.508h59.508v-59.508zM283.177 218.939h-59.508v59.508h59.508v-59.508zM283.177 293.837h-59.508v59.508h59.508v-59.508zM283.177 368.735h-59.508v59.508h59.508v-59.508zM358.075 144.040h-59.508v59.508h59.508v-59.508zM358.075 218.939h-59.508v59.508h59.508v-59.508zM358.075 293.837h-59.508v59.508h59.508v-59.508zM358.075 368.735h-59.508v59.508h59.508v-59.508zM593.030 319.487c0-2.052-1.026-3.078-2.052-3.078h-27.702c-2.052 0-3.078 1.026-3.078 3.078v0c0 1.026 1.026 2.052 3.078 2.052h27.702c1.026 0 2.052-1.026 2.052-2.052v0zM575.588 172.768c-4.104-1.026-7.182-5.13-7.182-9.234s4.104-8.208 9.234-7.182 7.182 4.104 7.182 8.208c0 5.13-4.104 8.208-9.234 8.208zM620.732 332.825h-95.418c-4.104 0-8.208-3.078-8.208-8.208v-175.446c0-5.13 4.104-8.208 8.208-8.208h95.418c5.13 0 8.208 3.078 8.208 8.208v175.446c0 5.13-3.078 8.208-8.208 8.208zM623.81 284.603c0-24.624 0-132.354 0-132.354 0-6.156-6.156-6.156-6.156-6.156s-84.132 0-89.262 0c-6.156 0-6.156 6.156-6.156 6.156s0 164.16 0 169.29 6.156 6.156 6.156 6.156 84.132 0 89.262 0c6.156 0 6.156-6.156 6.156-6.156s0-5.13 0-31.806c0 0 0-2.052 0-5.13zM613.55 205.601v-16.416h-80.028v110.808h80.028v-94.392z" />
<glyph unicode="&#xe833;" glyph-name="icomoon-overdraft" d="M876.207 699.108c-96.444 96.444-224.694 149.796-361.153 149.796-137.484 0-265.735-53.352-362.179-149.796s-149.796-224.694-149.796-361.153c0-137.484 53.352-265.735 149.796-362.179s224.694-149.796 362.179-149.796c136.458 0 264.709 53.352 361.153 149.796s149.796 224.694 149.796 362.179c0 136.458-53.352 264.709-149.796 361.153zM515.053-134.007c-260.604 0-471.961 211.356-471.961 471.961 0 259.578 211.356 470.935 471.961 470.935 259.578 0 470.935-211.356 470.935-470.935 0-260.604-211.356-471.961-470.935-471.961zM193.914 498.012v-351.919h656.642v351.919h-656.642zM818.751 177.898h-224.694c0 9.234 0 31.806 16.416 31.806l52.326 15.39c5.13 2.052 9.234 7.182 10.26 13.338v4.104c1.026 3.078 3.078 5.13 6.156 5.13h3.078c0 3.078-2.052 7.182-5.13 9.234v0c-2.052 2.052-3.078 4.104-3.078 6.156l-3.078 20.52h-6.156c-3.078 0-5.13 2.052-5.13 5.13l-5.13 34.884c0 2.052 2.052 4.104 4.104 4.104h4.104c-8.208 40.014 3.078 58.482 22.572 64.638 12.312 5.13 36.936 14.364 59.508 1.026l6.156-6.156 9.234-1.026c4.104-3.078 7.182-11.286 7.182-11.286 2.052-10.26 3.078-10.26 2.052-20.52 0-4.104-1.026-20.52-1.026-26.676 2.052 0 3.078 0 3.078 0 3.078 0 5.13-2.052 4.104-4.104l-4.104-34.884c0-3.078-3.078-5.13-5.13-5.13h-7.182l-2.052-20.52c0-2.052-2.052-4.104-3.078-6.156v0c-3.078-2.052-5.13-6.156-5.13-9.234h3.078c3.078 0 5.13-2.052 5.13-5.13l1.026-4.104c0-6.156 4.104-11.286 10.26-13.338v0l50.274-15.39v-31.806zM818.751 402.593c-16.416 15.39-67.716 34.884-103.626 34.884-105.678 0-191.862-86.184-191.862-191.862 0-21.546 7.182-52.326 22.572-67.716h-320.113v288.307h593.030v-63.612zM259.578 402.593l-8.208 15.39 33.858 16.416h20.52v-112.86h-23.598v92.34l-22.572-11.286zM374.491 321.539c28.728 0 43.092 18.468 43.092 56.43s-14.364 56.43-43.092 56.43c-28.728 0-43.092-19.494-43.092-57.456 0-36.936 14.364-55.404 43.092-55.404zM359.101 403.619c3.078 8.208 8.208 12.312 15.39 12.312 12.312 0 18.468-11.286 18.468-35.91 0-12.312-1.026-22.572-3.078-28.728-3.078-8.208-8.208-12.312-15.39-12.312-12.312 0-18.468 12.312-18.468 35.91 0 13.338 1.026 22.572 3.078 28.728zM477.091 321.539c28.728 0 43.092 18.468 43.092 56.43s-14.364 56.43-43.092 56.43c-28.728 0-43.092-19.494-43.092-57.456 0-36.936 14.364-55.404 43.092-55.404zM461.701 403.619c3.078 8.208 8.208 12.312 15.39 12.312 12.312 0 18.468-11.286 18.468-35.91 0-12.312-1.026-22.572-3.078-28.728-3.078-8.208-8.208-12.312-15.39-12.312-12.312 0-18.468 12.312-18.468 35.91 0 13.338 1.026 22.572 3.078 28.728z" />
<glyph unicode="&#xe834;" glyph-name="icomoon-security" d="M820.803 386.177v117.99c0 36.936-5.13 70.794-16.416 102.6-42.066 114.912-152.874 196.992-281.125 196.992v0c-124.146 0-230.85-75.924-275.995-182.628-15.39-35.91-21.546-82.080-21.546-123.12v-111.834M145.692 386.177v-513.001c60.534 0 29.754 0 63.612 0h625.862c62.586 0 1.026 0 63.612 0v513.001M578.666 161.482v-128.25h-112.86v128.25c-12.312 13.338-17.442 28.728-17.442 48.222 0 41.040 33.858 74.898 74.898 74.898s74.898-33.858 74.898-74.898c0-22.572-5.13-33.858-19.494-48.222zM690.5 386.177h-336.529v117.99c0 6.156 0 11.286 0 17.442 9.234 84.132 83.106 149.796 169.29 149.796s159.030-65.664 167.238-149.796c1.026-6.156 1.026-11.286 1.026-17.442l-1.026-117.99z" />
<glyph unicode="&#xe835;" glyph-name="icomoon-transaction-history" d="M876.207 699.108c-96.444 96.444-224.694 149.796-361.153 149.796-137.484 0-265.735-53.352-362.179-149.796s-149.796-224.694-149.796-361.153c0-137.484 53.352-265.735 149.796-362.179s224.694-149.796 362.179-149.796c136.458 0 264.709 53.352 361.153 149.796s149.796 224.694 149.796 362.179c0 136.458-53.352 264.709-149.796 361.153zM515.053-143.241c-260.604 0-482.221 220.59-482.221 481.195s221.616 481.195 482.221 481.195 480.169-221.616 480.169-481.195-220.59-481.195-480.169-481.195zM527.366 337.955h-22.572v48.222h22.572v-48.222zM696.656 337.955h-22.572v48.222h22.572v-48.222zM769.502 371.813h-61.56v-54.378h-45.144v54.378h-124.146v-54.378h-45.144v54.378h-65.664c-9.234 0-16.416-7.182-16.416-17.442v-292.411c0-9.234 7.182-16.416 16.416-16.416h341.659c9.234 0 17.442 7.182 17.442 16.416v292.411c0 10.26-8.208 17.442-17.442 17.442zM482.221 68.116h-45.144v44.118h45.144v-44.118zM482.221 123.52h-45.144v45.144h45.144v-45.144zM482.221 179.95h-45.144v45.144h45.144v-45.144zM482.221 236.381h-45.144v45.144h45.144v-45.144zM538.652 68.116h-45.144v44.118h45.144v-44.118zM538.652 123.52h-45.144v45.144h45.144v-45.144zM538.652 179.95h-45.144v45.144h45.144v-45.144zM538.652 236.381h-45.144v45.144h45.144v-45.144zM595.082 68.116h-45.144v44.118h45.144v-44.118zM595.082 123.52h-45.144v45.144h45.144v-45.144zM595.082 236.381h-45.144v45.144h45.144v-45.144zM651.512 68.116h-45.144v44.118h45.144v-44.118zM651.512 123.52h-45.144v45.144h45.144v-45.144zM651.512 179.95h-45.144v45.144h45.144v-45.144zM651.512 236.381h-45.144v45.144h45.144v-45.144zM707.942 68.116h-45.144v44.118h45.144v-44.118zM707.942 123.52h-45.144v45.144h45.144v-45.144zM707.942 179.95h-45.144v45.144h45.144v-45.144zM707.942 236.381h-45.144v45.144h45.144v-45.144zM764.372 68.116h-45.144v44.118h45.144v-44.118zM764.372 123.52h-45.144v45.144h45.144v-45.144zM764.372 179.95h-45.144v45.144h45.144v-45.144zM764.372 236.381h-45.144v45.144h45.144v-45.144zM402.193 610.872h176.472v15.39h-176.472v-15.39zM402.193 562.65h176.472v15.39h-176.472v-15.39zM402.193 514.428h176.472v16.416h-176.472v-16.416zM385.777 321.539h-144.666v-15.39h144.666v15.39zM385.777 274.343h-144.666v-16.416h144.666v16.416zM385.777 226.121h-144.666v-16.416h144.666v16.416zM241.11 161.482h144.666v16.416h-144.666v-16.416zM241.11 449.789h337.555v16.416h-337.555v-16.416zM241.11 402.593h337.555v15.39h-337.555v-15.39zM241.11 354.371h144.666v15.39h-144.666v-15.39zM385.777 81.454c-58.482 0-109.782 0-128.25 0-31.806 0-31.806 31.806-31.806 31.806-13.338 0-31.806 19.494-31.806 32.832v368.335l175.446 160.056h224.694c13.338 0 31.806-18.468 31.806-31.806 32.832 0 32.832-31.806 32.832-31.806s0-93.366 0-208.278h-16.416c0 106.704 0 192.888 0 208.278s-16.416 15.39-16.416 15.39v-223.668h-15.39v231.876c0 13.338-11.286 24.624-24.624 24.624h-216.486v-112.86c0 0 0-48.222-47.196-48.222-32.832 0-112.86 0-112.86 0v-344.737c0-13.338 11.286-23.598 24.624-23.598h151.848v-16.416h-144.666c0-15.39 16.416-15.39 16.416-15.39s58.482 0 128.25 0v-16.416z" />
<glyph unicode="&#xe836;" glyph-name="icomoon-pending" d="M876.207 699.108c-96.444 96.444-224.694 149.796-361.153 149.796-137.484 0-265.735-53.352-362.179-149.796s-149.796-224.694-149.796-361.153c0-137.484 53.352-265.735 149.796-362.179s224.694-149.796 362.179-149.796c136.458 0 264.709 53.352 361.153 149.796s149.796 224.694 149.796 362.179c0 136.458-53.352 264.709-149.796 361.153zM515.053-134.007c-260.604 0-471.961 211.356-471.961 471.961 0 259.578 211.356 470.935 471.961 470.935 259.578 0 470.935-211.356 470.935-470.935 0-260.604-211.356-471.961-470.935-471.961zM706.916 546.234h15.39c9.234 0 16.416 7.182 16.416 16.416v16.416c0 8.208-7.182 15.39-16.416 15.39h-368.335c-9.234 0-16.416-7.182-16.416-15.39v-16.416c0-9.234 7.182-16.416 16.416-16.416h15.39c0-139.536 111.834-143.64 117.99-226.746-6.156-82.080-117.99-82.080-117.99-222.642h-15.39c-9.234 0-16.416-6.156-16.416-15.39v-16.416c0-8.208 7.182-15.39 16.416-15.39h368.335c9.234 0 16.416 7.182 16.416 15.39v16.416c0 9.234-7.182 15.39-16.416 15.39h-15.39c0 140.562-110.808 140.562-117.99 222.642 7.182 83.106 117.99 87.21 117.99 226.746zM562.25 306.149c16.416-48.222 31.806-64.638 63.612-96.444s48.222-96.444 48.222-111.834h-271.891c0 0 0 63.612 31.806 95.418 48.222 48.222 80.028 81.054 80.028 112.86 0 15.39 16.416 63.612-63.612 128.25 0 0-48.222 31.806-48.222 111.834h271.891c0 0 0-80.028-48.222-111.834s-80.028-80.028-63.612-128.25zM535.574 386.177v0l-71.82 71.82c0 0 35.91-14.364 65.664-14.364s55.404 20.52 76.95 20.52c22.572 0-70.794-77.976-70.794-77.976M643.304 139.936c3.078-4.104 0-10.26-5.13-10.26h-198.018c-5.13 0-8.208 6.156-5.13 10.26 25.65 43.092 58.482 75.924 100.548 107.73 2.052 2.052 6.156 2.052 8.208 0 43.092-38.988 73.872-69.768 99.522-107.73v0z" />
<glyph unicode="&#xe837;" glyph-name="icomoon-view-scheduled-payments" d="M876.207 699.108c-96.444 96.444-224.694 149.796-361.153 149.796-137.484 0-265.735-53.352-362.179-149.796s-149.796-224.694-149.796-361.153c0-137.484 53.352-265.735 149.796-362.179s224.694-149.796 362.179-149.796c136.458 0 264.709 53.352 361.153 149.796s149.796 224.694 149.796 362.179c0 136.458-53.352 264.709-149.796 361.153zM515.053-134.007c-260.604 0-471.961 211.356-471.961 471.961 0 259.578 211.356 470.935 471.961 470.935 259.578 0 470.935-211.356 470.935-470.935 0-260.604-211.356-471.961-470.935-471.961zM708.968 90.688l25.65 25.65 67.716-66.69-24.624-25.65-68.742 66.69zM641.252 323.591c-69.768 0-127.224-56.43-127.224-127.224 0-69.768 57.456-127.224 127.224-127.224 70.794 0 127.224 57.456 127.224 127.224 0 70.794-56.43 127.224-127.224 127.224zM641.252 85.558c-60.534 0-110.808 50.274-110.808 110.808 0 61.56 50.274 110.808 110.808 110.808 61.56 0 110.808-49.248 110.808-110.808 0-60.534-49.248-110.808-110.808-110.808zM698.708 554.442h-88.236v-56.43h-64.638v56.43h-176.472v-56.43h-63.612v56.43h-88.236c-13.338 0-23.598-10.26-23.598-23.598v-424.765c0-13.338 10.26-24.624 23.598-24.624h312.931l-16.416 31.806h-48.222v64.638h16.416v15.39h-16.416v64.638h31.806v16.416h-31.806v63.612h64.638v-31.806l15.39 15.39v16.416h176.472v192.888c0 13.338-10.26 23.598-23.598 23.598zM289.333 113.26h-63.612v64.638h63.612v-64.638zM289.333 193.289h-63.612v64.638h63.612v-64.638zM289.333 274.343h-63.612v63.612h63.612v-63.612zM289.333 354.371h-63.612v63.612h63.612v-63.612zM369.361 113.26h-63.612v64.638h63.612v-64.638zM369.361 193.289h-63.612v64.638h63.612v-64.638zM369.361 274.343h-63.612v63.612h63.612v-63.612zM369.361 354.371h-63.612v63.612h63.612v-63.612zM450.415 113.26h-64.638v64.638h64.638v-64.638zM450.415 193.289h-64.638v64.638h64.638v-64.638zM450.415 354.371h-64.638v63.612h64.638v-63.612zM530.444 354.371h-64.638v63.612h64.638v-63.612zM610.472 354.371h-64.638v63.612h64.638v-63.612zM690.5 354.371h-64.638v63.612h64.638v-63.612zM353.971 514.428h-31.806v63.612h31.806v-63.612zM594.056 514.428h-31.806v63.612h31.806v-63.612zM656.642 205.601c-2.052 0-7.182-1.026-15.39-1.026h-13.338v22.572h13.338c7.182 0 12.312 0 13.338 0 3.078-1.026 5.13-2.052 6.156-4.104 2.052-1.026 3.078-4.104 3.078-7.182 0-2.052-1.026-4.104-2.052-6.156s-3.078-3.078-5.13-4.104zM642.278 274.343c-44.118 0-80.028-35.91-80.028-81.054s35.91-80.028 80.028-80.028 80.028 35.91 80.028 80.028-35.91 81.054-80.028 81.054zM667.928 154.3l-13.338 19.494c-4.104 6.156-7.182 10.26-9.234 12.312-1.026 2.052-3.078 3.078-5.13 4.104-2.052 0-5.13 1.026-9.234 1.026h-3.078v-36.936h-17.442v87.21h36.936c9.234 0 16.416 0 20.52-2.052s7.182-4.104 10.26-8.208c2.052-4.104 3.078-9.234 3.078-14.364 0-6.156-1.026-11.286-5.13-15.39-4.104-5.13-10.26-7.182-17.442-8.208 4.104-2.052 7.182-5.13 9.234-7.182 3.078-3.078 6.156-8.208 10.26-14.364l10.26-17.442h-20.52z" />
<glyph unicode="&#xe839;" glyph-name="icomoon-email" d="M409.375 331.799l-215.46-185.706v336.529l215.46-150.822zM530.444 289.733l-336.529 224.694h656.642l-320.113-224.694zM610.472 310.253l224.694-196.992h-625.862l229.824 201.096 91.314-56.43 80.028 52.326zM639.2 328.721l211.356 153.9v-336.529l-211.356 182.628z" />
<glyph unicode="&#xe83a;" glyph-name="icomoon-email-circle" d="M876.207 699.108c-96.444 96.444-224.694 149.796-361.153 149.796-137.484 0-265.735-53.352-362.179-149.796s-149.796-224.694-149.796-361.153c0-161.082 53.352-265.735 149.796-362.179s224.694-149.796 362.179-149.796c136.458 0 264.709 53.352 361.153 149.796s149.796 224.694 149.796 362.179c0 136.458-53.352 264.709-149.796 361.153zM515.053-134.007c-260.604 0-471.961 187.758-471.961 471.961 0 259.578 211.356 470.935 471.961 470.935 259.578 0 470.935-211.356 470.935-470.935 0-260.604-211.356-471.961-470.935-471.961zM409.375 331.799l-183.654-163.134v313.957l183.654-150.822zM530.444 289.733l-304.723 224.694h593.030l-288.307-224.694zM610.472 310.253l191.862-173.394h-561.224l198.018 177.498 91.314-56.43 80.028 52.326zM639.2 328.721l179.55 153.9v-313.957l-179.55 160.056z" />
<glyph unicode="&#xe83b;" glyph-name="icomoon-arrow-up" d="M885.441 412.853l-22.572-22.572-301.645 301.645v-770.528h-31.806v770.528l-301.645-301.645-22.572 22.572 340.633 340.633 339.607-340.633z" />
<glyph unicode="&#xe83c;" glyph-name="icomoon-tick" horiz-adv-x="794" d="M703.838 509.298l-54.378 54.378c-13.338 13.338-34.884 13.338-49.248 0l-273.943-274.969-108.756 108.756c-13.338 13.338-35.91 13.338-49.248 0l-54.378-54.378c-13.338-13.338-13.338-34.884 0-48.222l187.758-187.758c3.078-3.078 7.182-6.156 11.286-7.182 4.104-2.052 9.234-3.078 13.338-3.078 9.234 0 17.442 3.078 24.624 10.26l54.378 54.378c0 0 0 0 0 0l298.567 298.567c13.338 13.338 13.338 35.91 0 49.248z" />
<glyph unicode="&#xe83d;" glyph-name="icomoon-call" horiz-adv-x="794" d="M718.202 173.794c-17.442 12.312-84.132 56.43-136.458 72.846-11.286 4.104-27.702 0-36.936-10.26-9.234-9.234-58.482-58.482-58.482-58.482s-46.17-2.052-147.744 99.522v0 0c-101.574 101.574-99.522 147.744-99.522 147.744s49.248 49.248 58.482 58.482c10.26 10.26 13.338 25.65 10.26 36.936-16.416 52.326-60.534 119.016-72.846 137.484-10.26 14.364-29.754 19.494-53.352 10.26-90.288-34.884-124.146-147.744-99.522-220.59 41.040-115.938 100.548-200.070 164.16-262.657 61.56-62.586 146.718-123.12 262.657-164.16 72.846-24.624 185.706 9.234 220.59 100.548 9.234 23.598 4.104 42.066-11.286 52.326z" />
<glyph unicode="&#xe83e;" glyph-name="icomoon-international-payments" d="M876.207 701.16c-96.444 96.444-224.694 149.796-361.153 149.796-137.484 0-265.735-53.352-362.179-149.796s-149.796-224.694-149.796-361.153c0-137.484 53.352-265.735 149.796-362.179s224.694-149.796 362.179-149.796c136.458 0 264.709 53.352 361.153 149.796s149.796 224.694 149.796 362.179c0 136.458-53.352 264.709-149.796 361.153zM515.053-131.955c-260.604 0-471.961 211.356-471.961 471.961 0 259.578 211.356 470.935 471.961 470.935 259.578 0 470.935-211.356 470.935-470.935 0-260.604-211.356-471.961-470.935-471.961zM414.505 161.482l1.026 15.39c-3.078 0-7.182 0-10.26 1.026 3.078-6.156 6.156-11.286 9.234-16.416zM753.086 514.428c-4.104 6.156-8.208 12.312-13.338 17.442-50.274 60.534-126.198 99.522-210.33 99.522 0 0-1.026 0-1.026 0s0 0 0 0-1.026 0-1.026 0c-84.132-1.026-159.030-38.988-209.304-99.522-5.13-5.13-9.234-11.286-13.338-17.442-31.806-44.118-50.274-99.522-50.274-158.004 0-8.208 0-15.39 1.026-23.598 6.156-4.104 14.364-9.234 24.624-13.338-1.026 5.13-2.052 11.286-2.052 16.416h89.262c0-15.39 2.052-29.754 4.104-45.144 7.182-1.026 15.39-3.078 23.598-4.104-3.078 15.39-5.13 32.832-5.13 49.248h34.884l1.026 22.572h-36.936c0 37.962 5.13 73.872 14.364 105.678 33.858-10.26 72.846-16.416 114.912-17.442v-88.236h-73.872l25.65-22.572h48.222v-41.040l22.572-20.52v61.56h126.198c-1.026-30.78-5.13-60.534-12.312-87.21-31.806 9.234-66.69 15.39-103.626 17.442l27.702-25.65c24.624-2.052 48.222-7.182 69.768-13.338-22.572-67.716-62.586-114.912-107.73-122.094v65.664l-22.572-12.312v-53.352c-18.468 2.052-35.91 11.286-51.3 24.624l-8.208-4.104-11.286-7.182c0 0 1.026-1.026 1.026-1.026s-1.026 1.026-2.052 1.026l-25.65-14.364c32.832-14.364 68.742-22.572 106.704-22.572 0 0 1.026 0 1.026 0s0 0 0 0 1.026 0 1.026 0c84.132 0 160.056 38.988 210.33 99.522 5.13 5.13 9.234 11.286 13.338 16.416 31.806 45.144 51.3 99.522 51.3 159.030 0 58.482-19.494 113.886-51.3 158.004zM366.283 358.475h-89.262c0 53.352 17.442 102.6 46.17 142.614 16.416-11.286 36.936-21.546 58.482-29.754-9.234-33.858-15.39-72.846-15.39-112.86zM387.829 492.882c-19.494 7.182-36.936 15.39-51.3 25.65 28.728 34.884 67.716 61.56 111.834 76.95-24.624-24.624-46.17-60.534-60.534-102.6zM518.131 469.284c-40.014 1.026-76.95 6.156-108.756 16.416 22.572 67.716 62.586 115.938 108.756 122.094v-138.51zM780.788 358.475h-90.288c0 40.014-6.156 77.976-15.39 112.86 22.572 8.208 43.092 18.468 60.534 29.754 27.702-40.014 45.144-89.262 45.144-142.614zM722.306 518.532c-15.39-10.26-33.858-18.468-53.352-26.676-14.364 44.118-35.91 80.028-61.56 104.652 45.144-15.39 84.132-42.066 114.912-77.976zM540.704 607.794c45.144-7.182 85.158-54.378 107.73-122.094-32.832-10.26-69.768-15.39-107.73-16.416v138.51zM540.704 358.475v88.236c40.014 1.026 79.002 7.182 113.886 17.442 8.208-31.806 13.338-67.716 13.338-105.678h-127.224zM607.394 116.338c25.65 24.624 47.196 60.534 61.56 103.626 19.494-7.182 37.962-15.39 53.352-25.65-30.78-35.91-69.768-62.586-114.912-77.976zM735.644 211.757c-17.442 11.286-37.962 21.546-60.534 29.754 8.208 28.728 13.338 60.534 14.364 94.392h91.314c-4.104-46.17-20.52-88.236-45.144-124.146zM281.125 237.407c28.728-10.26 60.534-17.442 91.314-23.598 0 0 0 0 0 0v0c6.156-1.026 13.338-2.052 19.494-3.078v0c0 0 0 0 0 0 18.468-3.078 37.962-6.156 55.404-7.182l-3.078-48.222v-3.078l2.052 1.026 71.82 40.014 22.572 12.312 19.494 11.286-32.832 28.728-22.572 19.494c0 0 0 0 0 0l-51.3 45.144-4.104-61.56c-10.26 1.026-20.52 2.052-30.78 4.104-6.156 0-11.286 1.026-17.442 2.052v0c-8.208 1.026-16.416 3.078-23.598 4.104-31.806 6.156-63.612 14.364-90.288 24.624v0c-4.104 2.052-9.234 4.104-13.338 5.13 0 0 0 0 0 0-4.104 2.052-8.208 4.104-12.312 6.156v0c-18.468 9.234-33.858 18.468-43.092 29.754-8.208 8.208-11.286 16.416-11.286 23.598 4.104 42.066 22.572 45.144 25.65 46.17l10.26 45.144c0 0-6.156 0-6.156 0-23.598 0-68.742-18.468-74.898-88.236-1.026-20.52 6.156-40.014 22.572-57.456 21.546-23.598 56.43-42.066 96.444-56.43v0c0 0 0 0 0 0zM340.633 189.185c-12.312 3.078-24.624 6.156-35.91 9.234 0 0 0 0 0-1.026 4.104-5.13 8.208-11.286 13.338-16.416 25.65-30.78 57.456-55.404 93.366-72.846l1.026 24.624c-27.702 14.364-51.3 33.858-71.82 56.43z" />
<glyph unicode="&#xe83f;" glyph-name="icomoon-change-monthly-limit" d="M876.207 699.108c-96.444 96.444-224.694 149.796-361.153 149.796-137.484 0-265.735-53.352-362.179-149.796s-149.796-224.694-149.796-361.153c0-137.484 53.352-265.735 149.796-362.179s224.694-149.796 362.179-149.796c136.458 0 264.709 53.352 361.153 149.796s149.796 224.694 149.796 362.179c0 136.458-53.352 264.709-149.796 361.153zM515.053-134.007c-260.604 0-471.961 211.356-471.961 471.961 0 259.578 211.356 470.935 471.961 470.935 259.578 0 470.935-211.356 470.935-470.935 0-260.604-211.356-471.961-470.935-471.961zM385.777 525.714h-29.754v60.534h29.754v-60.534zM611.498 525.714h-30.78v60.534h30.78v-60.534zM708.968 563.676h-83.106v-53.352h-59.508v53.352h-165.186v-53.352h-59.508v53.352h-83.106c-12.312 0-22.572-10.26-22.572-22.572v-398.089c0-12.312 10.26-22.572 22.572-22.572h230.85c-8.208 9.234-15.39 19.494-21.546 30.78h-51.3v59.508h30.78c-1.026 5.13-2.052 10.26-2.052 15.39h-28.728v59.508h33.858c8.208 34.884 27.702 66.69 52.326 90.288h-11.286v59.508h59.508v-26.676c5.13 2.052 10.26 4.104 15.39 6.156v20.52h59.508v-10.26c1.026 0 2.052 0 3.078 0 4.104 0 8.208 0 12.312 0v10.26h59.508v-24.624c11.286-4.104 20.52-10.26 30.78-16.416v146.718c0 12.312-10.26 22.572-22.572 22.572zM326.269 151.222h-59.508v59.508h59.508v-59.508zM326.269 226.121h-59.508v59.508h59.508v-59.508zM326.269 301.019h-59.508v59.508h59.508v-59.508zM326.269 375.917h-59.508v59.508h59.508v-59.508zM401.167 151.222h-59.508v59.508h59.508v-59.508zM401.167 226.121h-59.508v59.508h59.508v-59.508zM401.167 301.019h-59.508v59.508h59.508v-59.508zM401.167 375.917h-59.508v59.508h59.508v-59.508zM476.065 375.917h-59.508v59.508h59.508v-59.508zM624.836 404.645c-89.262 0-161.082-72.846-161.082-162.108 0-88.236 71.82-161.082 161.082-161.082s162.108 72.846 162.108 161.082c0 89.262-72.846 162.108-162.108 162.108zM750.008 242.537c0-19.494-5.13-37.962-13.338-54.378l-194.94 146.718c21.546 20.52 51.3 32.832 83.106 32.832 68.742 0 125.172-56.43 125.172-125.172zM624.836 118.39c-68.742 0-124.146 56.43-124.146 124.146 0 25.65 7.182 48.222 19.494 67.716l199.044-148.77c-22.572-26.676-56.43-43.092-94.392-43.092z" />
<glyph unicode="&#xe900;" glyph-name="icomoon-view-scheduled-prepaid" d="M875.335 705.323c-96.514 96.514-224.838 149.668-361.333 149.668-136.493 0-264.817-53.154-361.331-149.668s-149.668-224.838-149.668-361.331c0-136.495 53.154-264.817 149.668-361.331s224.84-149.668 361.331-149.668c136.495 0 264.817 53.154 361.331 149.668s149.668 224.836 149.668 361.331c0 136.493-53.154 264.817-149.666 361.331zM514.002-126.968c-259.688 0-470.96 211.272-470.96 470.96s211.272 470.96 470.96 470.96c259.688 0 470.96-211.272 470.96-470.96s-211.272-470.96-470.96-470.96zM667.594 108.73l31.921 31.743 86.252-84.545-31.913-31.749-86.26 84.551zM581.666 403.586c-89.085 0-161.302-72.221-161.302-161.302 0-89.091 72.219-161.312 161.302-161.312 89.095 0 161.31 72.221 161.31 161.312 0 89.079-72.215 161.302-161.31 161.302zM581.666 102.010c-77.454 0-140.267 62.809-140.267 140.273 0 77.454 62.813 140.267 140.267 140.267 77.462 0 140.273-62.813 140.273-140.267 0-77.464-62.811-140.273-140.273-140.273zM343.013 524.797h-29.965v59.931h29.965v-59.931zM567.748 524.797h-29.965v59.931h29.965v-59.931zM424.943 150.239h-51.965v59.931h30.898c-0.815 4.931-1.437 9.926-1.85 14.981h-29.046v59.931h33.885c8.725 35 27.459 66.034 52.99 89.894h-11.966v59.931h59.931v-27.517c4.883 2.278 9.88 4.352 14.983 6.204v21.313h59.931v-10.368c0.947 0.014 1.89 0.036 2.841 0.036 4.080 0 8.128-0.146 12.14-0.408v10.74h59.929v-24.972c10.528-4.48 20.55-9.92 29.965-16.196v146.045c0 12.412-10.062 22.474-22.474 22.474h-82.402v-52.439h-59.931v52.439h-164.807v-52.439h-59.931v52.439h-82.404c-12.41 0-22.474-10.062-22.474-22.474v-397.034c0-12.41 10.062-22.474 22.474-22.474h230.297c-7.954 9.235-14.999 19.271-21.013 29.965zM372.978 434.903h59.931v-59.931h-59.931v59.931zM283.084 150.239h-59.931v59.931h59.931v-59.931zM283.084 225.15h-59.931v59.931h59.931v-59.931zM283.084 300.063h-59.931v59.931h59.931v-59.931zM283.084 374.974h-59.931v59.931h59.931v-59.931zM357.996 150.239h-59.931v59.931h59.931v-59.931zM357.996 225.15h-59.931v59.931h59.931v-59.931zM357.996 300.063h-59.931v59.931h59.931v-59.931zM357.996 374.974h-59.931v59.931h59.931v-59.931zM592.633 325.702c0-1.529-1.239-2.767-2.769-2.767h-27.641c-1.527 0-2.765 1.237-2.765 2.767v0c0 1.525 1.237 2.763 2.765 2.763h27.641c1.527 0 2.769-1.237 2.769-2.763v0zM575.328 179.161c-4.562-0.396-7.942-4.416-7.545-8.979s4.416-7.94 8.979-7.543 7.94 4.416 7.543 8.979c-0.394 4.562-4.418 7.942-8.977 7.543zM620.272 339.524h-95.523c-4.578 0-8.292-3.712-8.292-8.292v-175.603c0-4.578 3.712-8.294 8.292-8.294h95.523c4.58 0 8.296 3.714 8.296 8.294v175.603c0 4.578-3.716 8.292-8.296 8.292zM623.036 291.477c0-24.724 0-132.612 0-133.084 0-5.529-5.527-5.529-5.527-5.529s-84.464 0-89.996 0c-5.527 0-5.527 5.529-5.527 5.529s0 164.543 0 170.072 5.527 5.529 5.527 5.529 84.466 0 89.996 0c5.527 0 5.527-5.529 5.527-5.529s0-5.82 0-32.019c0-0.32 0-2.088 0-4.969zM612.552 211.751v-16.37h-80.078v111.143h80.078v-94.773z" />
<glyph unicode="&#xe901;" glyph-name="icomoon-view-beneficiary" d="M585.388 325.741c37.929 40.316 63.139 107.192 63.139 167.541 0 94.090-61.14 136.274-136.537 136.274-75.405 0-136.537-42.184-136.537-136.274 0-60.344 25.204-127.211 63.139-167.534-172.204-73.452-198.183-90.288-199.545-207.193h-0.112v-34.068h80.969c-0.433 5.294-0.672 10.634-0.672 16.035 0 106.245 86.289 192.376 192.75 192.376 106.455 0 192.757-86.131 192.757-192.376 0-5.393-0.236-10.739-0.672-16.029h80.982v34.068h-0.144c-1.38 116.898-27.334 133.735-199.532 207.186zM512.501-130.942c-260.446 0-472.343 211.482-472.343 471.435 0 259.934 211.89 471.409 472.343 471.409 260.446 0 472.343-211.475 472.343-471.415 0-259.954-211.896-471.435-472.343-471.435zM874.891 702.153c-96.799 96.621-225.497 149.829-362.39 149.829s-265.603-53.208-362.39-149.822c-96.806-96.595-150.112-225.044-150.112-361.666 0-136.635 53.313-265.084 150.106-361.692 96.799-96.615 225.497-149.822 362.39-149.822 136.9 0 265.596 53.208 362.39 149.822 96.813 96.615 150.112 225.064 150.112 361.686 0 136.616-53.306 265.064-150.106 361.666zM512.265 211.020c-47.697 0-88.724-29.38-104.934-71.070 16.219-41.698 57.239-71.063 104.934-71.063 47.703 0 88.724 29.373 104.934 71.063-16.213 41.698-57.233 71.070-104.934 71.070zM512.265 92.569c-26.702 0-47.697 20.848-47.697 47.38s20.979 47.38 47.697 47.38c26.715 0 47.703-20.848 47.703-47.38s-20.979-47.373-47.697-47.373zM512.271 168.375c-16.219 0-28.61-12.319-28.61-28.426 0-16.114 12.391-28.426 28.61-28.426s28.623 12.319 28.623 28.426c0 16.114-12.404 28.426-28.623 28.426z" />
</font>
</defs>
</svg>
